Welcome Guest ( Log In | Register )

> Sinister Haze - Betrayed By Time [ep] (2015), Psychedelic Stoner/Doom Metal
post Apr 30 2015, 15:25:07
Post #1

Serial Uploader
Group Icon
Group: V.I.P
Posts: 35,457
Releases: 33666
From: Lithuania
On Forums: 11 years 1 week
Thanks: 386293 time(s)
Lithuania


(IMG:https://metalarea.org/images/audiocovers/2015_Apr/acov_tid244425_thumb.jpg)

*Artist: Sinister Haze
*Album: Betrayed By Time [ep]
*Year: 2015
*Genre: Psychedelic Stoner/Doom Metal
*Country: United States (IMG:https://metalarea.org/forum/style_images/flags/United%20States.png)
*Format: mp3@CBR320kbps
*Size: 64MB

Tracklist:
01. Betrayed By Time 05:20
02. Changin' Ways 05:05
03. Motorhaze 04:21
04. Black Shapeless Demon 08:38
******************************
Total playing time: 23:24



(IMG:https://metalarea.org/images/youtube.png)

Technical info
(IMG:https://metalarea.org/images/spectrogram/2015_Apr/0f1d61ee0ad91c29ca9ac0831a3c3bc0.png)
Input File: 02. Changin\\\' Ways.mp3
Channels : 2
Sample Rate : 44100
Precision : 16-bit
Duration : 00:05:05.48 = 13471712 samples = 22911.1 CDDA sectors
File Size : 14.8M
Bit Rate : 387k
Sample Encoding: MPEG audio (layer I, II or III)
Comments :
Title=Changin' Ways
Artist=Sinister Haze
Album=Betrayed By Time
Tracknumber=2
Year=2015
Genre=Metal



Register


Go to the top of the page
  Insert nick Quick quote
+Quote Post
 
Start new topic
Replies (1 - 3)
post Jan 11 2019, 12:35:08
Post #2

Group: Подсевший
Posts: 47
Releases: 0
On Forums: 1 year 5 months
Thanks: 0 time(s)
Albania


Please, can you re up this link?
Go to the top of the page
  Insert nick Quick quote
+Quote Post
post Mar 26 2019, 20:07:43
Post #3

Group: Подсевший
Posts: 47
Releases: 0
On Forums: 1 year 5 months
Thanks: 0 time(s)
Albania


(IMG:style_emoticons/default/pray.gif)
Go to the top of the page
  Insert nick Quick quote
+Quote Post
post Mar 26 2019, 20:15:53
Post #4


Group Icon
Group: S-moderation team
Posts: 10,813
Releases: 1438
From: Zagreb
On Forums: 8 years 3 months
Thanks: 46733 time(s)
Croatia


Register


Thanks:
Go to the top of the page
  Insert nick Quick quote
+Quote Post

Reply to this topicStart new topic
1 User(s) are reading this topic (1 Guests and 0 Anonymous Users)
0 Members:

 



- Lo-Fi Version Support form
Copyrights and abuse reports form
Time is now: 20th June 2019 - 20:45:30