Welcome Guest ( Log In | Register )

> Unholy War - Tormented Souls [ep] (2014), Black/Thrash Metal
post May 4 2015, 16:03:23
Post #1

Serial Uploader
Group Icon
Group: V.I.P
Posts: 32,930
Releases: 31223
From: Lithuania
On Forums: 10 years 2 months
Thanks: 357514 time(s)
Lithuania


(IMG:https://metalarea.org/images/audiocovers/2015_May/acov_tid244656_thumb.jpg)

*Artist: Unholy War
*Album: Tormented Souls [ep]
*Year: 2014
*Genre: Black/Thrash Metal
*Country: Germany (IMG:https://metalarea.org/forum/style_images/flags/Germany.png)
*Format: mp3@CBR320kbps
*Size: 32MB

Tracklist:
01. Raise Of A New Aeon 03:59
02. Tormented Souls 05:09
03. Wolves Guard My Coffin (Behemoth Cover) 03:59
******************************
Total playing time: 13:07




Technical info
(IMG:https://metalarea.org/images/spectrogram/2015_May/ae48bcc5328ac667aa40301e7608b360.png)
Input File: 02. Tormented Souls.mp3
Channels : 2
Sample Rate : 44100
Precision : 16-bit
Duration : 00:05:09.08 = 13630560 samples = 23181.2 CDDA sectors
File Size : 12.6M
Bit Rate : 325k
Sample Encoding: MPEG audio (layer I, II or III)
Comments :
Title=Tormented Souls
Artist=Unholy War
Album=Tormented Souls [Promo 2014]
Tracknumber=2
Year=2014



Register


Go to the top of the page
  Insert nick Quick quote
+Quote Post
 
Start new topic
Replies (1 - 3)
post Dec 3 2017, 19:30:51
Post #2

ZEHTAN!
*****
Group: Металариец
Posts: 470
Releases: 22
From: Germany
On Forums: 12 years 5 months
Thanks: 779 time(s)
Germany


re-upload please!!

thank you! (IMG:style_emoticons/default/smile1.gif)
Go to the top of the page
  Insert nick Quick quote
+Quote Post
post Dec 6 2017, 22:23:40
Post #3

Satan Soldier
**************
Group: Металариец
Posts: 2,240
Releases: 605
From: IN HELL
On Forums: 5 years 7 months
Thanks: 13016 time(s)
France


Register


enjoy bro (IMG:style_emoticons/default/headcrab.png)


Go to the top of the page
  Insert nick Quick quote
+Quote Post
post Dec 6 2017, 22:34:02
Post #4

ZEHTAN!
*****
Group: Металариец
Posts: 470
Releases: 22
From: Germany
On Forums: 12 years 5 months
Thanks: 779 time(s)
Germany


thank you very much my friend!!! (IMG:style_emoticons/default/smile1.gif)


Thanks:
(1) rom666,
Go to the top of the page
  Insert nick Quick quote
+Quote Post

Reply to this topicStart new topic
1 User(s) are reading this topic (1 Guests and 0 Anonymous Users)
0 Members:

 



- Lo-Fi Version Support form
Copyrights and abuse reports form
Time is now: 16th August 2018 - 12:34:51