Welcome Guest ( Log In | Register )

> Boris - Urban Dance (2015), Experimental Sludge/Drone/Doom Metal/Noise (D)
post May 21 2015, 10:55:30
Post #1

Serial Uploader
Group Icon
Group: V.I.P
Posts: 37,221
Releases: 35404
From: Lithuania
On Forums: 12 years 1 month
Thanks: 421577 time(s)
Lithuania


(IMG:https://metalarea.org/images/audiocovers/2015_May/acov_tid245701_thumb.jpg)

*Artist: Boris
*Album: Urban Dance
*Year: 2015
*Genre: Experimental Sludge/Drone/Doom Metal/Noise
*Country: Japan (IMG:https://metalarea.org/forum/style_images/flags/Japan.png)
*Format: mp3@CBR320kbps
*Size: 88MB

Tracklist:
01. Un, Deux, Trois 04:30
02. Surrender 07:44
03. Choreographer 08:45
04. Endless 09:43
05. Game Of Death 11:18
******************************
Total playing time: 42:00

(IMG:https://metalarea.org/images/myspace.png)


Technical info
(IMG:https://metalarea.org/images/spectrogram/2015_May/e6134b4f82abd4f6a2189dd376e9d7ba.png)
Input File: 02. Surrender.mp3
Channels : 2
Sample Rate : 44100
Precision : 16-bit
Duration : 00:07:44.85 = 20499797 samples = 34863.6 CDDA sectors
File Size : 18.6M
Bit Rate : 320k
Sample Encoding: MPEG audio (layer I, II or III)
Comments :
Title=surrender
Artist=BORIS
Album=urban dance
Tracknumber=2/5
Year=2015
Genre=17
Discnumber=1/1



Register


Go to the top of the page
  Insert nick Quick quote
+Quote Post
 
Start new topic
Replies (1 - 5)
post May 21 2015, 12:06:23
Post #2

Четыре Литра
****
Group: Металариец
Posts: 394
Releases: 21
From: М.О. Железнодорожный
On Forums: 9 years 5 months
Thanks: 753 time(s)
Russian Federation


Только вчера удалил предыдущий новый альбом (IMG:style_emoticons/default/1488.gif)
Go to the top of the page
  Insert nick Quick quote
+Quote Post
post May 21 2015, 14:12:14
Post #3

Serial Uploader
Group Icon
Group: V.I.P
Posts: 37,221
Releases: 35404
From: Lithuania
On Forums: 12 years 1 month
Thanks: 421577 time(s)
Lithuania


Также есть альбом Warpath (CBR-320):
Register


Thanks:
Go to the top of the page
  Insert nick Quick quote
+Quote Post
post May 21 2015, 14:29:57
Post #4

\m/
Group Icon
Group: S-moderation team
Posts: 7,796
Releases: 19
From: Петропавловск-Камчатский
On Forums: 11 years 1 month
Thanks: 7633 time(s)
Russian Federation


Смотрю, Борька. Думаю опять паренька туда-сюда по разделам таскают, да на "хЭ" называют. Присмотрелся, а это другой релиз оказывается. (IMG:style_emoticons/default/1488.gif)
Go to the top of the page
  Insert nick Quick quote
+Quote Post
post May 23 2015, 18:17:14
Post #5

Falgoust
******
Group: Металариец
Posts: 522
Releases: 30
From: Buenos Aires, Argentina
On Forums: 12 years 11 months
Thanks: 567 time(s)
Argentina


fuck! just one song on this one??!!! come on Boris stop making shitty noises and write real songs!
Go to the top of the page
  Insert nick Quick quote
+Quote Post
post May 23 2015, 18:31:38
Post #6

Аннигилятор пивА
Group Icon
Group: V.I.P
Posts: 52,360
Releases: 16550
From: Koenigsberg - TILZIT
On Forums: 14 years 1 month
Thanks: 365625 time(s)
Russian Federation


ЦИТАТА(DarkHorde @ May 21 2015, 13:29:57) *
Смотрю, Борька. Думаю опять паренька туда-сюда по разделам таскают, да на "хЭ" называют. Присмотрелся, а это другой релиз оказывается. (IMG:style_emoticons/default/1488.gif)

это серия нойзовых альбомов, какой нехороший человек запихнул их в формат надо разобраться, скрипы и скрежет расчески без вокала и музыки в формат? повинен смерти (IMG:style_emoticons/default/1488.gif)
мне вот интересно, те кто скачал все три альбома в восторге? чета отзывов нет насчет покупки винила, или я подозреваю элита высокомерно молчит тихо скупая тиражи дабы успеть пока не разобрали (IMG:style_emoticons/default/headcrab.png)
Go to the top of the page
  Insert nick Quick quote
+Quote Post

Reply to this topicStart new topic
1 User(s) are reading this topic (1 Guests and 0 Anonymous Users)
0 Members:

 



- Lo-Fi Version Support form
Copyrights and abuse reports form
Time is now: 14th July 2020 - 11:15:49