Welcome Guest ( Log In | Register )

> Nattesorg - Power Of God (2009), Unblack Metal (D4)
post May 25 2015, 13:51:44
Post #1

Serial Uploader
Group Icon
Group: V.I.P
Posts: 35,215
Releases: 33430
From: Lithuania
On Forums: 10 years 11 months
Thanks: 383306 time(s)
Lithuania


(IMG:https://metalarea.org/images/audiocovers/2015_May/acov_tid245974_thumb.jpg)

*Artist: Nattesorg
*Album: Power Of God
*Year: 2009
*Genre: Unblack Metal
*Country: Norway (IMG:https://metalarea.org/forum/style_images/flags/Norway.png)
*Format: mp3@CBR320kbps
*Size: 164MB

Tracklist:
01. Power Of God 06:50
02. For Victory 05:01
03. In The Clouds 04:18
04. Glory To Our God 04:56
05. Serving The Lord 06:21
06. Temple Of Heaven 04:05
07. For Our Sins 04:57
08. Hallelujah 04:58
09. Flames Around Me 05:02
10. White Throne Of God 06:04
11. The Hour Has Come 06:32
12. His Kingdom Is Not Of This World 12:29
******************************
Total playing time: 1:11:33

(IMG:https://metalarea.org/images/myspace.png)



Technical info
(IMG:https://metalarea.org/images/spectrogram/2015_May/785348003d62c7befd0ab3d02870c61a.png)
Input File: 02. For Victory.mp3
Channels : 2
Sample Rate : 44100
Precision : 16-bit
Duration : 00:05:01.98 = 13317186 samples = 22648.3 CDDA sectors
File Size : 12.2M
Bit Rate : 323k
Sample Encoding: MPEG audio (layer I, II or III)
Comments :
Title=02 For Victory
Artist=Nattesorg
Album=Power Of God
Tracknumber=2
Year=2015



Register


Go to the top of the page
  Insert nick Quick quote
+Quote Post
 
Start new topic
Replies (1 - 4)
post May 25 2015, 16:16:49
Post #2

Going home. Flying high.
**************
Group: Металариец
Posts: 12,768
Releases: 0
From: The Land of Shadows
On Forums: 12 years 9 months
Thanks: 19833 time(s)
Russian Federation


за прошлый год сей персонаж склепал ажно целых три опуса!
а единомышленников, судя по всему, найти не смог. посему - one-man project, да ещё и с лирикой по тэгу "Christianity"...
уныние тут подозреваю я (по всем направлениям)
Go to the top of the page
  Insert nick Quick quote
+Quote Post
post May 25 2015, 18:59:58
Post #3

Три Литра
***
Group: Завсегдатай
Posts: 250
Releases: 35
On Forums: 12 years 7 months
Thanks: 345 time(s)
Czech Republic


What? Unblack Metal? I thought Christian metal is named White Metal. Or is it some kind of parody?
Go to the top of the page
  Insert nick Quick quote
+Quote Post
post May 26 2015, 08:12:41
Post #4

Leegte
***********
Group: Металариец
Posts: 1,537
Releases: 14
From: Kiovia
On Forums: 7 years 1 month
Thanks: 2159 time(s)
Ukraine


Powder of God, eпт.
От треклистов подобных опусов несёт каким-то безумием в плохом смысле слова. Почитал названия треков и будто попал на какое-то гнусное действие в протестантской секте, где присутствующие с неестественными улыбками, пустой головой и больными глазами единогласно, нараспев повторяют какую-то чушь вслед за своим "духовным наставником". Жуть.


QUOTE(Lugia010719d1 @ May 25 2015, 20:59:58) *
What? Unblack Metal? I thought Christian metal is named White Metal. Or is it some kind of parody?



No, this stuff is called exactly 'unblack' metal, or 'black' metal with quotes, at least on russian forums.


Thanks:
(1) sethurius,
Go to the top of the page
  Insert nick Quick quote
+Quote Post
post May 26 2015, 09:45:21
Post #5


***********
Group: Металариец
Posts: 1,939
Releases: 14
From: Казань
On Forums: 9 years 8 months
Thanks: 2444 time(s)
Russian Federation


ЦИТАТА(Kwaad @ May 26 2015, 10:12:41) *
Powder of God, eпт.
... будто попал на какое-то гнусное действие в протестантской секте, где присутствующие с неестественными улыбками, пустой головой и больными глазами единогласно, нараспев повторяют какую-то чушь вслед за своим "духовным наставником". Жуть.

Эй ,у нас весь народ так живет испокон веков и ниче нормально, всех все устраивает (IMG:style_emoticons/default/crazy.gif)
Go to the top of the page
  Insert nick Quick quote
+Quote Post

Reply to this topicStart new topic
1 User(s) are reading this topic (1 Guests and 0 Anonymous Users)
0 Members:

 



- Lo-Fi Version Support form
Copyrights and abuse reports form
Time is now: 26th May 2019 - 10:09:03