Welcome Guest ( Log In | Register )

> Vöedtæmhtëhactått & Maquahuitl - Without Veils Of Righteousness [split] (2015), Black Metal | Black Metal
post May 26 2015, 14:32:46
Post #1

Четыре Литра
****
Group: Металариец
Posts: 392
Releases: 1
On Forums: 6 years 8 months
Thanks: 179 time(s)
South Korea


(IMG:http://metalarea.org/images/audiocovers/2015_May/acov_tid246043_thumb.jpg)

*Artist: Vöedtæmhtëhactått & Maquahuitl
*Album: Without Veils Of Righteousness [split]
*Year: 2015
*Genre: Black Metal | Black Metal
*Country: Ukraine (IMG:http://metalarea.org/forum/style_images/flags/Ukraine.png) | United States (IMG:http://metalarea.org/forum/style_images/flags/United%20States.png)
*Format: mp3@CBR320kbps
*Size: 64MB

Tracklist:
Vöedtæmhtëhactått:
01. The Kingdom Divided Into Three Bowl Of Grief 5:23
02. Prevent The Child's Christianization Insanity 4:10
03. Gleeful Life With Satan, Instead Of Thinking About God 4:10
04. For The Wages Of Sin Is Bliss 2:53
Maquahuitl:
05. Banner Of Blood And Sun 3:38
06. Forward With Hate 3:26
07. Esclavos De La Estrella Azul 3:11
08. The Great Betrayal 4:16
******************************
Total playing time: 31:07

Vöedtæmhtëhactått
Maquahuitl

Technical info
(IMG:http://metalarea.org/images/spectrogram/2015_May/d470e6b3b84ef387cc78bcf94e14a6ff.png)
Input File: IV - For The Wages Of Sin Is Bliss.mp3
Channels : 2
Sample Rate : 44100
Precision : 16-bit
Duration : 00:02:53.98 = 7672298 samples = 13048.1 CDDA sectors
File Size : 6.96M
Bit Rate : 320k
Sample Encoding: MPEG audio (layer I, II or III)
Comments :
Title=For The Wages Of Sin Is Bliss
Artist=Voedtaemhtehactatt
Album=Without Veils Of Righteousness
Tracknumber=IV
Genre=Black Metal



Register


Go to the top of the page
  Insert nick Quick quote
+Quote Post
 
Start new topic
Replies (1 - 4)
post Jun 30 2015, 18:07:17
Post #2

antithesis
**************
Group: Металариец
Posts: 2,581
Releases: 30
From: VRN
On Forums: 8 years 9 months
Thanks: 1446 time(s)
Russian Federation


бодрый сплит. узнаваемо-неплохой музон у Vedtmhthacttt, драйвовый raw у Maquahuitl.

но, обращая внимания на названия треков и страницы исполнителей в металархивах, трудно удержаться от фэйспалма..
Go to the top of the page
  Insert nick Quick quote
+Quote Post
post Nov 13 2018, 09:42:38
Post #3

Два Литра
**
Group: Завсегдатай
Posts: 109
Releases: 0
On Forums: 2 years 2 weeks
Thanks: 14 time(s)
Unknown


Can You re-up?
Thx.
Go to the top of the page
  Insert nick Quick quote
+Quote Post
post Dec 13 2018, 14:15:28
Post #4

Два Литра
**
Group: Завсегдатай
Posts: 109
Releases: 0
On Forums: 2 years 2 weeks
Thanks: 14 time(s)
Unknown


Register


This post has been edited by Borderline1991: Dec 14 2018, 09:00:34
Reason for edit: hide


Go to the top of the page
  Insert nick Quick quote
+Quote Post
post Dec 13 2018, 16:04:27
Post #5

Четыре Литра
****
Group: Металариец
Posts: 367
Releases: 13
From: Подольск
On Forums: 9 years 9 months
Thanks: 433 time(s)
Russian Federation


ЦИТАТА(Razorbladeswaltz @ Jun 30 2015, 20:07:17) *
но, обращая внимания на названия треков и страницы исполнителей в металархивах, трудно удержаться от фэйспалма..


пофиг, пляшем (IMG:style_emoticons/default/banana.gif)
Go to the top of the page
  Insert nick Quick quote
+Quote Post

Reply to this topicStart new topic
1 User(s) are reading this topic (1 Guests and 0 Anonymous Users)
0 Members:

 



- Lo-Fi Version Support form
Copyrights and abuse reports form
Time is now: 23rd March 2019 - 01:57:29