Welcome Guest ( Log In | Register )

> Enthring - The Art Of Chaos [ep] (2015), Symphonic/Melodic Death Metal
post Jun 2 2015, 14:05:17
Post #1

Правь статус, ####!111
**************
Group: Металариец
Posts: 16,664
Releases: 11312
From: Г.Харьков
On Forums: 6 years 11 months
Thanks: 188628 time(s)
Unknown


(IMG:http://metalarea.org/images/audiocovers/2015_Jun/acov_tid246565_thumb.jpg)

*Artist: Enthring
*Album: The Art Of Chaos [ep]
*Year: 2015
*Genre: Symphonic/Melodic Death Metal
*Country: Finland (IMG:http://metalarea.org/forum/style_images/flags/Finland.png)
*Format: mp3@CBR320kbps
*Size: 32MB

Tracklist:
01. We Thrive On Chaos 04:05
02. And We Dream Of Our Demise 05:39
03. The Second Vengeance Orchestra 03:58
******************************
Total playing time: 13:42

(IMG:http://metalarea.org/images/youtube.png)


Technical info
(IMG:http://metalarea.org/images/spectrogram/2015_Jun/57be4265058a05db0c62542f9b452d38.png)
Input File: 01 - We Thrive on Chaos.mp3
Channels : 2
Sample Rate : 44100
Precision : 16-bit
Duration : 00:04:05.33 = 10818965 samples = 18399.6 CDDA sectors
File Size : 9.82M
Bit Rate : 320k
Sample Encoding: MPEG audio (layer I, II or III)
Comments :
Title=We Thrive on Chaos
Artist=Enthring
Album=The Art Of Chaos
Tracknumber=1
Year=2015
Genre=Death Metal



Register


Go to the top of the page
  Insert nick Quick quote
+Quote Post
 
Start new topic
Replies (1 - 3)
post Jun 2 2015, 14:38:21
Post #2

Экскадрилия Утуггофф. УУУ...ЖЖЖ...
**********
Group: Металариец
Posts: 1,282
Releases: 0
From: н.п. Большие Утюги
On Forums: 6 years 1 month
Thanks: 407 time(s)
Russian Federation


НикакОвый... 11-ый поинтересней будет. (IMG:style_emoticons/default/dooo.gif)
Go to the top of the page
  Insert nick Quick quote
+Quote Post
post Apr 15 2019, 13:14:41
Post #3

Мегаманьяк
***********
Group: Металариец
Posts: 1,850
Releases: 0
On Forums: 9 months 2 weeks
Thanks: 1058 time(s)
Russian Federation


31 mb/320 kbps
Register
Go to the top of the page
  Insert nick Quick quote
+Quote Post
post Yesterday, 19:03:54
Post #4

Мегаманьяк
***********
Group: Металариец
Posts: 1,762
Releases: 0
From: MoscoW
On Forums: 12 years 4 months
Thanks: 1573 time(s)
Russian Federation


Go to the top of the page
  Insert nick Quick quote
+Quote Post

Reply to this topicStart new topic
1 User(s) are reading this topic (1 Guests and 0 Anonymous Users)
0 Members:

 



- Lo-Fi Version Support form
Copyrights and abuse reports form
Time is now: 20th April 2019 - 13:39:09