Welcome Guest ( Log In | Register )

> Above The Storm - Eternal Sun [ep] (2015), Melodic Death Metal
post Jun 4 2015, 11:20:53
Post #1

Правь статус, ####!111
**************
Group: Металариец
Posts: 6,563
Releases: 6039
From: Lithuania
On Forums: 15 years 2 months
Thanks: 46368 time(s)
Lithuania


(IMG:https://metalarea.org/images/audiocovers/2015_Jun/acov_tid246711_thumb.jpg)

*Artist: Above The Storm
*Album: Eternal Sun [ep]
*Year: 2015
*Genre: Melodic Death Metal
*Country: United States (IMG:https://metalarea.org/forum/style_images/flags/United%20States.png)
*Format: mp3@CBR320kbps
*Size: 37MB

Tracklist:
1. Halo Of Bats
2. Eternal Sun
3. Underdogs
******************************
Total playing time: 15:51

(IMG:https://metalarea.org/images/youtube.png)


Technical info
(IMG:https://metalarea.org/images/spectrogram/2015_Jun/d7ac86717abed8ae58a223eda1d00ed1.png)
Input File: 02 - Eternal Sun.mp3
Channels : 2
Sample Rate : 44100
Precision : 16-bit
Duration : 00:03:48.57 = 10079893 samples = 17142.7 CDDA sectors
File Size : 9.22M
Bit Rate : 323k
Sample Encoding: MPEG audio (layer I, II or III)
Comments :
Title=Eternal Sun
Artist=Above The Storm
Album=Eternal Sun
Tracknumber=2
Year=2015
Genre=9



Register


Go to the top of the page
  Insert nick Quick quote
+Quote Post
 
Start new topic
Replies (1 - 2)
post Jun 4 2015, 20:15:05
Post #2

Трясоглав Необыкновенный
******
Group: Металариец
Posts: 672
Releases: 0
From: Canoa - Ecuador
On Forums: 12 years 3 months
Thanks: 198 time(s)
Ecuador


Вокал отвратительный, да и вообще по музыке занудство какое-то...
Go to the top of the page
  Insert nick Quick quote
+Quote Post
post Nov 12 2015, 22:06:04
Post #3

Два Литра
**
Group: Завсегдатай
Posts: 161
Releases: 0
On Forums: 6 years 1 month
Thanks: 15 time(s)
Unknown


Above the Storm - Eternal Sun (EP) 2015

Go to the top of the page
  Insert nick Quick quote
+Quote Post

Reply to this topicStart new topic
1 User(s) are reading this topic (1 Guests and 0 Anonymous Users)
0 Members:

 



- Lo-Fi Version Support form
Copyrights and abuse reports form
Time is now: 4th December 2021 - 12:15:19