Welcome Guest ( Log In | Register )

> Kain - Seele (2015), Black Metal (D9)
post Jun 4 2015, 15:56:48
Post #1

Serial Uploader
Group Icon
Group: V.I.P
Posts: 33,290
Releases: 31565
From: Lithuania
On Forums: 10 years 5 months
Thanks: 360606 time(s)
Lithuania


(IMG:http://metalarea.org/images/audiocovers/2015_Jun/acov_tid246720_thumb.jpg)

*Artist: Kain
*Album: Seele
*Year: 2015
*Genre: Black Metal
*Country: Germany (IMG:http://metalarea.org/forum/style_images/flags/Germany.png)
*Format: mp3@CBR320kbps
*Size: 131MB

Tracklist:
01. Agonie
02. Seele Stirbt
03. Galgenbaums Sündenfrucht
04. Abschaum
05. Trotz
06. Seelenkrüppel
07. Verbranntes Fleisch
08. Schwarze Tirade
09. Erwachen
******************************
Total playing time: 55:25


(IMG:http://metalarea.org/images/youtube.png)

Technical info
(IMG:http://metalarea.org/images/spectrogram/2015_Jun/11cc4086bc39652ae30c16336c073e7e.png)
Input File: 06. Kain - Seelenkr?ppel.mp3
Channels : 2
Sample Rate : 44100
Precision : 16-bit
Duration : 00:05:24.06 = 14290870 samples = 24304.2 CDDA sectors
File Size : 13.0M
Bit Rate : 322k
Sample Encoding: MPEG audio (layer I, II or III)
Comments :
Title=SeelenkrГјppel
Artist=Kain
Album=Seele
Tracknumber=6/9
Year=2015



Register


Go to the top of the page
  Insert nick Quick quote
+Quote Post
 
Start new topic
Replies (1 - 3)
Lion
post Jun 5 2015, 06:10:34
Post #2

Guests team






Register


Go to the top of the page
  Insert nick Quick quote
+Quote Post
post Jul 14 2016, 14:03:21
Post #3

hearer & reader
**************
Group: Металариец
Posts: 7,132
Releases: 91
From: Moscow
On Forums: 11 years 2 months
Thanks: 6777 time(s)
Russian Federation



Dark deathened Black Metal было бы ближе... А с таким тегом я альбом этот пропустил.
Может, оно и к лучшему.
Go to the top of the page
  Insert nick Quick quote
+Quote Post
post Nov 8 2018, 13:56:40    Сейчас играет: Lynyrd Skynyrd - That's How I Like It
Post #4

antithesis
**************
Group: Металариец
Posts: 2,399
Releases: 30
From: VRN
On Forums: 8 years 5 months
Thanks: 1287 time(s)
Russian Federation


reuploaded
Register


Thanks:
(1) varg-38ru,
Go to the top of the page
  Insert nick Quick quote
+Quote Post

Reply to this topicStart new topic
1 User(s) are reading this topic (1 Guests and 0 Anonymous Users)
0 Members:

 



- Lo-Fi Version Support form
Copyrights and abuse reports form
Time is now: 17th November 2018 - 22:47:10