Welcome Guest ( Log In | Register )

> Antichrist - Unreleased Tracks (91-94) [bootleg] (1994), Black Metal
Jacktheripper666
post Jun 18 2015, 17:23:28
Post #1

Guests team






(IMG:http://metalarea.org/images/audiocovers/2015_Jun/acov_tid247609_thumb.jpg)

*Artist: Antichrist
*Album: Unreleased Tracks (91-94) [bootleg]
*Year: 1994
*Genre: Black Metal
*Country: Germany (IMG:http://metalarea.org/forum/style_images/flags/Germany.png)
*Format: mp3@CBR320kbps
*Size: 73MB

Tracklist:
01. Through The Gates Of Unholiness And The Truth Beyond 03:55
02. Ghoul Metal 01:32
03. Forever Sacrificed 04:58
04. Das Reich 00:27
05. 666 - Destroy The Light 05:37
06. The Beginning Of The Apocalypse 01:31
07. Kill 03:52
08. The New Aeon 03:36
09. Die Erweckung 00:44
10. The Night Of The Revolution - Execute Them All 04:43
******************************
Total playing time: 30:55

Extended info
Original tape-rip


Technical info
(IMG:http://metalarea.org/images/spectrogram/2015_Jun/8c0b6e79ffce52edbe72a91b00fb2098.png)
Input File: 02. Ghoul Metal.mp3
Channels : 2
Sample Rate : 44100
Precision : 16-bit
Duration : 00:01:32.82 = 4093406 samples = 6961.57 CDDA sectors
File Size : 3.94M
Bit Rate : 340k
Sample Encoding: MPEG audio (layer I, II or III)
Comments :
Title=Ghoul Metal
Artist=Antichrist
Album=Unreleased Tracks (91-94)
Tracknumber=02
Year=1994
Genre=Black Metal



Register


Вернуться к началу страницы
  Insert nick Quick quote
+Цитировать сообщение
 
Создать новую тему
Replies (1 - 1)
post Dec 7 2017, 08:28:29
Post #2

...
Group Icon
Group: S-moderation team
Posts: 5,970
Releases: 1235
On Forums: 7 years 1 month
Thanks: 30110 time(s)
Unknown


Register


Вернуться к началу страницы
  Insert nick Quick quote
+Цитировать сообщение

ОтветитьСоздать новую тему
2 User(s) are reading this topic (2 Guests and 0 Anonymous Users)
0 Members:

 



- Lo-Fi Version Support form
Copyrights and abuse reports form
Time is now: 19th April 2018 - 10:51:53