Welcome Guest ( Log In | Register )

> Horrizon - Dwelling Within (2015), Melodic Death Metal
post Jun 20 2015, 11:42:53
Post #1

Serial Uploader
Group Icon
Group: V.I.P
Posts: 34,367
Releases: 32594
From: Lithuania
On Forums: 10 years 9 months
Thanks: 371833 time(s)
Lithuania


(IMG:http://metalarea.org/images/audiocovers/2015_Jun/acov_tid247720_thumb.jpg)

*Artist: Horrizon
*Album: Dwelling Within
*Year: 2015
*Genre: Melodic Death Metal
*Country: Germany (IMG:http://metalarea.org/forum/style_images/flags/Germany.png)
*Format: mp3@CBR320kbps
*Size: 98MB

Tracklist:
01. Lost In Dreams (Intro)
02. Dwelling Within
03. Far Beyond The Horizon II
04. From The Abyss Of Hell
05. A Treacherous Beast
06. Whispering My Name
07. Labyrinth
08. The Storm v2014
09. Last Masquerade
10. No More Fear
11. Fading Away
******************************
Total playing time: 41:37



Technical info
(IMG:http://metalarea.org/images/spectrogram/2015_Jun/8db411174afeee805547c64338d281ac.png)
Input File: 06. Whispering My Name.mp3
Channels : 2
Sample Rate : 44100
Precision : 16-bit
Duration : 00:04:12.45 = 11132957 samples = 18933.6 CDDA sectors
File Size : 10.1M
Bit Rate : 320k
Sample Encoding: MPEG audio (layer I, II or III)
Comments :
Title=Whispering My Name
Artist=Horrizon
Album=Dwelling Within
Tracknumber=06/11
Year=2015



Register


Go to the top of the page
  Insert nick Quick quote
+Quote Post
 
Start new topic
Replies (1 - 5)
post Jun 20 2015, 13:25:33
Post #2

::
**************
Group: Металариец
Posts: 2,294
Releases: 3
From: Воронеж
On Forums: 8 years 10 months
Thanks: 1013 time(s)
Russian Federation


Ооо, помню таких.

***

Саунд свой вроде сохранили, а вот материал за 3 года сочинили вяленький, дебютник похитовей будет.
Go to the top of the page
  Insert nick Quick quote
+Quote Post
post Jun 21 2015, 10:43:23
Post #3

Ъ
**************
Group: Металариец
Posts: 9,458
Releases: 9
On Forums: 10 years 2 months
Thanks: 1815 time(s)
Sweden


Да, что то слабенько, пол альбома только осилил.
Go to the top of the page
  Insert nick Quick quote
+Quote Post
post Jun 21 2015, 15:49:08
Post #4

Ёлд ХеллоВяйне
Group Icon
Group: V.I.P
Posts: 26,836
Releases: 131
From: Питер
On Forums: 12 years 4 months
Thanks: 14936 time(s)
Russian Federation




Вроде недурно.


Go to the top of the page
  Insert nick Quick quote
+Quote Post
post Jul 3 2015, 17:08:03
Post #5

Шесть Литров
******
Group: Металариец
Posts: 527
Releases: 11
On Forums: 11 years 6 months
Thanks: 209 time(s)
Unknown


заводной альбомчик (IMG:style_emoticons/default/20.gif)
Go to the top of the page
  Insert nick Quick quote
+Quote Post
post Mar 15 2019, 17:50:00
Post #6

Маньяк
**********
Group: Металариец
Posts: 1,117
Releases: 0
On Forums: 8 months 2 weeks
Thanks: 589 time(s)
Russian Federation


95 mb/320 kbps
Register
Go to the top of the page
  Insert nick Quick quote
+Quote Post

Reply to this topicStart new topic
1 User(s) are reading this topic (1 Guests and 0 Anonymous Users)
0 Members:

 



- Lo-Fi Version Support form
Copyrights and abuse reports form
Time is now: 23rd March 2019 - 03:39:12