Welcome Guest ( Log In | Register )

> My Refuge - A Matter Of Supremacy (2015), Progressive/Heavy/Power Metal
post Jun 22 2015, 13:44:06
Post #1

Serial Uploader
Group Icon
Group: V.I.P
Posts: 37,112
Releases: 35296
From: Lithuania
On Forums: 11 years 9 months
Thanks: 418029 time(s)
Lithuania


(IMG:http://metalarea.org/images/audiocovers/2015_Jun/acov_tid247826_thumb.jpg)

*Artist: My Refuge
*Album: A Matter Of Supremacy
*Year: 2015
*Genre: Progressive/Heavy/Power Metal
*Country: Italy (IMG:http://metalarea.org/forum/style_images/flags/Italy.png)
*Format: mp3@CBR320kbps
*Size: 113MB

Tracklist:
01. A Storm Is Coming
02. The Cage (Oh Demon in My Eyes)
03. Calling of the Wind
04. Endless Night
05. Living in Anger
06. This Wall
07. The Raven
08. Empty Room
09. On Wings of Wax
10. Somewhere
******************************
Total playing time: 48:27


(IMG:http://metalarea.org/images/youtube.png)

Technical info
(IMG:http://metalarea.org/images/spectrogram/2015_Jun/2a65ac6b2368efd5764cdc1610017003.png)
Input File: 06. My Refuge - This Wall.mp3
Channels : 2
Sample Rate : 44100
Precision : 16-bit
Duration : 00:04:46.96 = 12654892 samples = 21521.9 CDDA sectors
File Size : 11.5M
Bit Rate : 322k
Sample Encoding: MPEG audio (layer I, II or III)
Comments :
Title=This Wall
Artist=My Refuge
Album=A Matter of Supremacy
Tracknumber=6/10
Year=2015



Register


Go to the top of the page
  Insert nick Quick quote
+Quote Post
 
Start new topic
Replies (1 - 6)
post Jun 22 2015, 15:23:16
Post #2

Join my religion, or die
**************
Group: Металариец
Posts: 10,554
Releases: 1466
From: Питера
On Forums: 10 years 6 months
Thanks: 19007 time(s)
Russian Federation


Памяти Рэйдж посвящается... (IMG:style_emoticons/default/15.gif)
Go to the top of the page
  Insert nick Quick quote
+Quote Post
post Jun 22 2015, 15:39:15
Post #3

на аватаре не я
**************
Group: Металариец
Posts: 4,889
Releases: 7
From: "Самопровозглашенная ДНР" (с)
On Forums: 10 years 8 months
Thanks: 2398 time(s)
Russian Federation


Превьюшка приятная. Какого-то явного сходства с Rage не уловил.
Go to the top of the page
  Insert nick Quick quote
+Quote Post
post Jun 22 2015, 15:39:27
Post #4

21st Century Schizoid Man
**************
Group: Металариец
Posts: 6,334
Releases: 79
From: Moscow
On Forums: 11 years 10 months
Thanks: 5142 time(s)
Russian Federation


Жидковато.
Go to the top of the page
  Insert nick Quick quote
+Quote Post
post Jun 22 2015, 15:43:32
Post #5

Ёлд ХеллоВяйне
Group Icon
Group: V.I.P
Posts: 28,933
Releases: 133
From: Питер
On Forums: 13 years 5 months
Thanks: 16768 time(s)
Russian Federation


QUOTE(slack @ 22nd June 2015 - 17:23:16) *
Памяти Рэйдж посвящается


новый проект Пиви, Манни и Криса, который в сентябре будет гостить в России (IMG:style_emoticons/default/look.gif)
Go to the top of the page
  Insert nick Quick quote
+Quote Post
post Jun 22 2015, 15:51:37
Post #6

Мегаманьяк
***********
Group: Металариец
Posts: 1,922
Releases: 19
From: Москва
On Forums: 12 years 1 week
Thanks: 1256 time(s)
Russian Federation


Пиви уже и для Рэйдж состав набрал, и даже планирует к весне 2016 альбом выпустить.
Go to the top of the page
  Insert nick Quick quote
+Quote Post
post Jun 23 2015, 07:21:27
Post #7

Ъ
**************
Group: Металариец
Posts: 10,001
Releases: 9
On Forums: 11 years 2 months
Thanks: 1983 time(s)
Sweden




Превьюхи унылые более чем полностью.
Go to the top of the page
  Insert nick Quick quote
+Quote Post

Reply to this topicStart new topic
1 User(s) are reading this topic (1 Guests and 0 Anonymous Users)
0 Members:

 



- Lo-Fi Version Support form
Copyrights and abuse reports form
Time is now: 29th March 2020 - 21:33:22