Welcome Guest ( Log In | Register )

> Tulsadoom - Storms Of The Netherworld (2015), Blackened Heavy/Thrash Metal
post Jun 23 2015, 05:20:25
Post #1

Правь статус, ####!111
**************
Group: Металариец
Posts: 13,362
Releases: 9421
From: Г.Харьков
On Forums: 6 years 1 month
Thanks: 153702 time(s)
Unknown


(IMG:http://metalarea.org/images/audiocovers/2015_Jun/acov_tid247857_thumb.jpg)

*Artist: Tulsadoom
*Album: Storms Of The Netherworld
*Year: 2015
*Genre: Blackened Heavy/Thrash Metal
*Country: Austria (IMG:http://metalarea.org/forum/style_images/flags/Austria.png)
*Format: mp3@CBR320kbps
*Size: 125MB

Tracklist:
1. Storms of the Netherworld
2. Skulls
3. Nightwind
4. Riders of Doom
5. Shadows over Lemuria
6. Tyrantfall
7. Stormride
8. Dustlands
9. The Coal of Blue Fire
10. Subraion Xan
11. Final Cataclysm
******************************
Total playing time: 58:47



Technical info
(IMG:http://metalarea.org/images/spectrogram/2015_Jun/5ad4efab2b100d55f6b98cade11cb713.png)
Input File: 02 - Skulls.mp3
Channels : 2
Sample Rate : 44100
Precision : 16-bit
Duration : 00:04:31.75 = 11984351 samples = 20381.5 CDDA sectors
File Size : 11.0M
Bit Rate : 323k
Sample Encoding: MPEG audio (layer I, II or III)
Comments :
Title=Skulls
Artist=Tulsadoom
Album=Storms Of The Netherworld
Tracknumber=2/11
Year=2015
Genre=Heavy Metal
Discnumber=1/1



Register


Go to the top of the page
  Insert nick Quick quote
+Quote Post
 
Start new topic
Replies (1 - 3)
post Jun 23 2015, 09:30:41
Post #2

Group: Подсевший
Posts: 42
Releases: 3
From: Київ
On Forums: 10 years 3 months
Thanks: 55 time(s)
Ukraine


Наконец-то! Дождались! ©
Go to the top of the page
  Insert nick Quick quote
+Quote Post
post Sep 24 2017, 11:43:19
Post #3

\m/
Group Icon
Group: S-moderation team
Posts: 7,407
Releases: 19
From: Петропавловск-Камчатский
On Forums: 9 years 1 week
Thanks: 6640 time(s)
Russian Federation


Перезалейте/Reupload
Go to the top of the page
  Insert nick Quick quote
+Quote Post
post Nov 15 2017, 02:11:37
Post #4

Мегаманьяк
***********
Group: Металариец
Posts: 1,965
Releases: 0
On Forums: 3 years 1 month
Thanks: 1721 time(s)
Russian Federation


Из сети, 320
Register


Thanks:
(1) DarkHorde,
Go to the top of the page
  Insert nick Quick quote
+Quote Post

Reply to this topicStart new topic
1 User(s) are reading this topic (1 Guests and 0 Anonymous Users)
0 Members:

 



- Lo-Fi Version Support form
Copyrights and abuse reports form
Time is now: 20th June 2018 - 19:55:00