Welcome Guest ( Log In | Register )

> Kadavrik - Grimm I & II (2015), Melodic Death Metal (D4)
post Jun 27 2015, 05:34:59
Post #1

Правь статус, ####!111
**************
Group: Металариец
Posts: 25,808
Releases: 18479
From: Г.Харьков
On Forums: 8 years 11 months
Thanks: 365084 time(s)
Unknown


(IMG:http://metalarea.org/images/audiocovers/2015_Jun/acov_tid248010_thumb.png)

*Artist: Kadavrik
*Album: Grimm I & II
*Year: 2015
*Genre: Melodic Death Metal
*Country: Germany (IMG:http://metalarea.org/forum/style_images/flags/Germany.png)
*Format: mp3@CBR320kbps
*Size: 96MB

Tracklist:
1. Wither Away 05:44
2. All the World But One 04:44
3. Ruins 04:29
4. 7 Years 05:55 instrumental
5. Queen of Sylvan Lands 03:54
6. Lords 04:54
7. Voids 03:52
8. Shuttered 03:19
9. Helix 06:12
******************************
Total playing time: 43:03



Technical info
(IMG:http://metalarea.org/images/spectrogram/2015_Jun/81d609043923393e7576d12f4f8a39b5.png)
Input File: 02 - All the World but One.mp3
Channels : 2
Sample Rate : 44100
Precision : 16-bit
Duration : 00:04:44.61 = 12551169 samples = 21345.5 CDDA sectors
File Size : 11.9M
Bit Rate : 334k
Sample Encoding: MPEG audio (layer I, II or III)
Comments :
Title=All the World but One
Artist=Kadavrik
Album=Grimm I & II
Tracknumber=2/9
Year=2015
Genre=Death Metal
Discnumber=1/1



Register


Go to the top of the page
  Insert nick Quick quote
+Quote Post
 
Start new topic
Replies (1 - 5)
post Jun 27 2015, 09:22:45
Post #2

::
**************
Group: Металариец
Posts: 2,295
Releases: 3
From: Воронеж
On Forums: 10 years 11 months
Thanks: 1055 time(s)
Russian Federation


Унылость по сравнению с неплохими предыдущими.
Go to the top of the page
  Insert nick Quick quote
+Quote Post
post Jun 27 2015, 14:27:52
Post #3

Ъ
**************
Group: Металариец
Posts: 10,573
Releases: 9
On Forums: 12 years 3 months
Thanks: 2161 time(s)
Sweden


Есть неплохие места, но в целом скучновато и стиль не так прост, тут и мдм и пост блек какой то...
Go to the top of the page
  Insert nick Quick quote
+Quote Post
post Jun 28 2015, 10:11:49
Post #4

Два Литра
**
Group: Завсегдатай
Posts: 151
Releases: 0
On Forums: 13 years 3 months
Thanks: 17 time(s)
Russian Federation


Просто стиль неверно обозначен, отсюда и неоправданные ожидания. А альбом своего рода шедевр.


Thanks:
(1) Storky,
Go to the top of the page
  Insert nick Quick quote
+Quote Post
post Dec 28 2016, 09:43:11
Post #5

Четыре Литра
****
Group: Металариец
Posts: 315
Releases: 0
On Forums: 12 years 1 week
Thanks: 57 time(s)
Ukraine




Thanks:
Go to the top of the page
  Insert nick Quick quote
+Quote Post
post Feb 19 2020, 23:34:39
Post #6

добрый мизантроп
**************
Group: Металариец
Posts: 2,142
Releases: 1
From: Минск
On Forums: 10 years 5 months
Thanks: 1012 time(s)
Madagascar


Щедевральный альбом, странно что мало покупок на БК.
В целом это авангард блэк - легче чем Fleurety. Тут есть и техникал, и что-то от суммонинг, мдм, металкор, хардкор
Go to the top of the page
  Insert nick Quick quote
+Quote Post

Reply to this topicStart new topic
2 User(s) are reading this topic (2 Guests and 0 Anonymous Users)
0 Members:

 



- Lo-Fi Version Support form
Copyrights and abuse reports form
Time is now: 21st April 2021 - 14:51:35