Welcome Guest ( Log In | Register )

> K.F.R - Death March (2014), Black Metal/Industrial/Dark Ambient
Jacktheripper666
post Jul 8 2015, 22:33:22
Post #1

Guests team






(IMG:http://metalarea.org/images/audiocovers/2015_Jul/acov_tid248606_thumb.jpg)

*Artist: K.F.R
*Album: Death March
*Year: 2014
*Genre: Black Metal/Industrial/Dark Ambient
*Country: France (IMG:http://metalarea.org/forum/style_images/flags/France.png)
*Format: mp3@CBR320kbps
*Size: 126MB

Tracklist:
1. Der Antichrist 06:45
2. The Devil Has Come Home 06:19
3. Stab the Bitch 04:19
4. Bound to Die 07:09
5. Death March 11:46
6. Death March (Epilogue) 06:40
******************************
Total playing time: 42:58



Extended info
Line-up:
Maxime Taccardi - Everything


Technical info
(IMG:http://metalarea.org/images/spectrogram/2015_Jul/1aee5579cff3f365e8db98214e80d2e1.png)
Input File: 02. The Devil Has Come Home.mp3
Channels : 2
Sample Rate : 44100
Precision : 16-bit
Duration : 00:06:19.78 = 16748166 samples = 28483.3 CDDA sectors
File Size : 15.4M
Bit Rate : 324k
Sample Encoding: MPEG audio (layer I, II or III)
Comments :
Title=The Devil Has Come Home
Artist=K.F.R (ЩѓШ§ЩЃШ±)
Album=Death March (Complete Session)
Tracknumber=2
Year=2014
Genre=Black Metal / Dark Ambient / Industrial



Register

Register


Go to the top of the page
  Insert nick Quick quote
+Quote Post
 
Start new topic
Replies (1 - 6)
post Jul 9 2015, 14:11:25
Post #2

Правь статус, ####!111
**************
Group: Металариец
Posts: 46,493
Releases: 718
On Forums: 11 years 5 days
Thanks: 39038 time(s)
Russian Federation


Спасибо. На его бэндкампе лежат еще 3 релиза, которых нет на портале. Всё фо фрее, так что дерзайте!
Go to the top of the page
  Insert nick Quick quote
+Quote Post
post Nov 24 2016, 15:45:47
Post #3

Правь статус, ####!111
**************
Group: Металариец
Posts: 46,493
Releases: 718
On Forums: 11 years 5 days
Thanks: 39038 time(s)
Russian Federation


Ужас, какафония, бред, ад и жесть - квинтэссенция психованного мракобесия от Максимэ Таккарди. Круто, чо. Всем фанатам бм, нойза, авангарда и шизы к ознакомлению.


Thanks:
(1) DarkHorde,
Go to the top of the page
  Insert nick Quick quote
+Quote Post
post Nov 25 2016, 03:03:13
Post #4

\m/
Group Icon
Group: S-moderation team
Posts: 7,790
Releases: 19
From: Петропавловск-Камчатский
On Forums: 10 years 11 months
Thanks: 7604 time(s)
Russian Federation


ЦИТАТА(vosmidesijatye @ 25th November 2016 - 02:45:47) *
Всем фанатам бм, нойза, авангарда и шизы к ознакомлению

Что есть, то есть. Обложки подстать содержанию, что за художник их рисует?
К сожалению здесь все ссылки мертвы(Jacktheripper666 на прощанье громко хлопнул дверью), кто-нибудь перезальёт, вместе с K.F.R - ANTI (2014)?

K.F.R (كافر) себя характеризует так:
NO BULLSHIT, NO FAME, NO MTV, NO MONEY, NO FASHION, NO COMPASSION, NO COMPROMISES, NO FAN, JUST PURE DARKNESS AS IT WAS MEANT TO BE... NO FAKE CVLT, NO MAKE UP, TRUTH THROUGH HATE AND EXCREMENTS... NO KINGDOM, NO HOPE, NO LIVE, NO SOCIAL SHARING, NO HUMANITY. FORGET WHAT YOU ARE AND BECOME WHAT LIES INSIDE, WHAT YOU'RE MADE OF, SPREAD YOUR BLOOD, FEEL YOUR GUTS, DO IT AND STAND...
Go to the top of the page
  Insert nick Quick quote
+Quote Post
post Nov 25 2016, 12:13:57
Post #5

Правь статус, ####!111
**************
Group: Металариец
Posts: 46,493
Releases: 718
On Forums: 11 years 5 days
Thanks: 39038 time(s)
Russian Federation


Вот этот хужожник -

Рисует картины собственной кровью!

АНТИ перезаливаю.


Thanks:
(1) DarkHorde,
Go to the top of the page
  Insert nick Quick quote
+Quote Post
post Nov 25 2016, 13:07:55
Post #6

\m/
Group Icon
Group: S-moderation team
Posts: 7,790
Releases: 19
From: Петропавловск-Камчатский
On Forums: 10 years 11 months
Thanks: 7604 time(s)
Russian Federation


И рисует и музон наяривает, прям молодец (IMG:style_emoticons/default/15.gif)
На странице группы можно посмjтреть сам процесс создания картин (резанные руки)
Go to the top of the page
  Insert nick Quick quote
+Quote Post
post Oct 14 2018, 20:39:02
Post #7

=(
Group Icon
Group: Moderation team
Posts: 6,405
Releases: 2059
On Forums: 13 years 9 months
Thanks: 64248 time(s)
Saudi Arabia


Added links by LazarShadow


Go to the top of the page
  Insert nick Quick quote
+Quote Post

Reply to this topicStart new topic
1 User(s) are reading this topic (1 Guests and 0 Anonymous Users)
0 Members:

 



- Lo-Fi Version Support form
Copyrights and abuse reports form
Time is now: 7th June 2020 - 03:28:42