Welcome Guest ( Log In | Register )

> 

Здесь релизы с живыми прямыми ссылками на lossless

> Idisenfluch & Anachoret - Idisenfluch/Anachoret [split] (2015), Depressive Black Metal | Atmospheric Black Metal
Jacktheripper666
post Jul 19 2015, 08:35:52
Post #1

Guests team






(IMG:http://metalarea.org/images/audiocovers/2015_Jul/acov_tid249176_thumb.jpg)

*Artist: Idisenfluch & Anachoret
*Album: Idisenfluch/Anachoret [split]
*Year: 2015
*Genre: Depressive Black Metal | Atmospheric Black Metal
*Country: Germany (IMG:http://metalarea.org/forum/style_images/flags/Germany.png) | Germany (IMG:http://metalarea.org/forum/style_images/flags/Germany.png)
*Format: mp3@CBR320kbps
*Size: 105MB

Tracklist:
Idisenfluch:
1. Nebelwelten 07:11
2. Krypta 06:47
3. Schlafendes Gemüt 07:30
Anachoret:
4. November 14:14
5. Durch Die Nacht 09:45
******************************
Total playing time: 45:27



Technical info
(IMG:http://metalarea.org/images/spectrogram/2015_Jul/d3b9ab24202293d0ddfc887328b4335d.png)
Input File: 01. Idisenfluch - Nebelwelten.mp3
Channels : 2
Sample Rate : 44100
Precision : 16-bit
Duration : 00:07:12.00 = 19051244 samples = 32400.1 CDDA sectors
File Size : 17.4M
Bit Rate : 322k
Sample Encoding: MPEG audio (layer I, II or III)
Comments :
Title=Nebelwelten
Artist=Idisenfluch
Album=Idisenfluch / Anachoret
Tracknumber=01
Year=2015
Genre=Atmospheric Black Metal



Register


Go to the top of the page
  Insert nick Quick quote
+Quote Post
 
Start new topic
Replies (1 - 4)
post Aug 14 2015, 05:31:37
Post #2

i listen to black metal
**************
Group: Металариец
Posts: 2,353
Releases: 128
From: Москва-Лианозово
On Forums: 12 years 4 months
Thanks: 2049 time(s)
Russian Federation


Idisenfluch- депра!)))
Go to the top of the page
  Insert nick Quick quote
+Quote Post
post Jul 20 2016, 13:03:11
Post #3

but I'm white and furry
**********
Group: Металариец
Posts: 1,152
Releases: 415
From: Москва
On Forums: 13 years 3 months
Thanks: 5103 time(s)
Russian Federation


Anachoret - очень достойно, несмотря на то, что это one-man project. Жалко, что его предыдущую ЕР "Horizont" нигде не найти...
Go to the top of the page
  Insert nick Quick quote
+Quote Post
post Mar 11 2017, 08:43:32
Post #4

Правь статус, ####!111
**************
Group: Металариец
Posts: 2,750
Releases: 18
From: Eternal darkness
On Forums: 11 years 7 months
Thanks: 6810 time(s)
Russian Federation


Register


Go to the top of the page
  Insert nick Quick quote
+Quote Post
post Feb 10 2019, 08:04:04
Post #5


Group Icon
Group: S-moderation team
Posts: 10,532
Releases: 1435
From: Zagreb
On Forums: 8 years 2 months
Thanks: 45297 time(s)
Croatia


Register


Thanks:
Go to the top of the page
  Insert nick Quick quote
+Quote Post

Reply to this topicStart new topic
1 User(s) are reading this topic (1 Guests and 0 Anonymous Users)
0 Members:

 



- Lo-Fi Version Support form
Copyrights and abuse reports form
Time is now: 22nd May 2019 - 09:37:41