Welcome Guest ( Log In | Register )

> Despondent Chants - Silence Lingers On My Grave [best of/compilation] (2015), Doom/Death Metal
post Jul 23 2015, 15:16:06
Post #1

...
**************
Group: Металариец
Posts: 3,400
Releases: 1438
From: МЕЩЁРА
On Forums: 11 years 10 months
Thanks: 41225 time(s)
Russian Federation


(IMG:http://metalarea.org/images/audiocovers/2015_Jul/acov_tid249387_thumb.jpg)

*Artist: Despondent Chants
*Album: Silence Lingers On My Grave [best of/compilation]
*Year: 2015
*Genre: Doom/Death Metal
*Country: Peru (IMG:http://metalarea.org/forum/style_images/flags/Peru.png)
*Format: mp3@CBR320kbps
*Size: 282MB

Tracklist:
CD 1:
1. In The Woods Of Disdain 07:40
2. For You 13:19
3. Withered Garden 07:47
4. Whispers 01:22
5. Forest Of Burning Souls 11:43
6. Silent Fields 09:17
7. Through These Dreams 09:00
8. Forgotten Roses On My Grave 09:46
9. In The Arms Of Death 02:52
CD 2:
1. Farewell 10:01
2. Introspection 26:18
******************************
Total playing time: 1:49:05




Extended info
+ Scans.

Tracks 1-3 (CD 1) taken from "The Lingering Silence" demo. Originally released by FunerART posmoGROUP in 2009.
Tracks 4-9 (CD 1) taken from "Forgotten Roses on My Grave" demo. Originally released by Despondent Chants in 2004.
Tracks from CD 2 previously unreleased.
Limited edition to 100 copies comes in 6-panel digipak. (GS Productions)


Technical info
(IMG:http://metalarea.org/images/spectrogram/2015_Jul/b903bfbab275f54f8a4fef895e43c705.png)
Input File: 1. In The Woods Of Disdain.mp3
Channels : 2
Sample Rate : 44100
Precision : 16-bit
Duration : 00:07:39.41 = 20259937 samples = 34455.7 CDDA sectors
File Size : 18.4M
Bit Rate : 320k
Sample Encoding: MPEG audio (layer I, II or III)
Comments :
Title=In The Woods Of Disdain
Artist=Despondent Chants
Album=Silence Lingers On My Grave (CD 1)
Tracknumber=1
Year=2015
Genre=Doom/Death Metal



Register


Go to the top of the page
  Insert nick Quick quote
+Quote Post
 
Start new topic
Replies (1 - 4)
post Jul 23 2015, 17:04:07
Post #2

Кожаный ублюдок
**************
Group: Металариец
Posts: 3,106
Releases: 6
From: Алчевск (early) Некросибирск (now)
On Forums: 10 years 9 months
Thanks: 1891 time(s)
Russian Federation


Если верить метал-архивам у группы всего две демки... Я так понимаю это они и есть? (IMG:style_emoticons/default/headcrab.png)
Go to the top of the page
  Insert nick Quick quote
+Quote Post
post Jul 23 2015, 20:13:12
Post #3

Ничего не знаю. Ничего.
***********
Group: Металариец
Posts: 1,509
Releases: 47
From: вержение
On Forums: 11 years 4 months
Thanks: 1666 time(s)
Russian Federation


Я сначала подумал, что опять продают музыку без ведома музыкантов, потому что на ФБ группы про этот релиз вообще ни слова. Но если открыть их свежее интервью верхним постом, то там лейбл упоминается, во всяком случае.
Go to the top of the page
  Insert nick Quick quote
+Quote Post
post Oct 15 2015, 01:40:50
Post #4

Group: Подсевший
Posts: 12
Releases: 0
On Forums: 11 years 5 months
Thanks: 6 time(s)
Peru


Thanks a lot!!!
Go to the top of the page
  Insert nick Quick quote
+Quote Post
post Oct 21 2015, 13:17:01
Post #5

####!111
**************
Group: Металариец
Posts: 3,874
Releases: 126
From: The Mountain Of DOOM
On Forums: 12 years 4 months
Thanks: 5407 time(s)
Russian Federation


Романтичный думец в лучших традициях ранних Anathema, Katatonia и My Dying Bride
Великолепный повод познакомиться с замечательной музыкой этого коллектива для тех, кто не слышал первые демки. Бонусы со 2-го диска тоже хороши несмотря на продолжительность
Go to the top of the page
  Insert nick Quick quote
+Quote Post

Reply to this topicStart new topic
1 User(s) are reading this topic (1 Guests and 0 Anonymous Users)
0 Members:

 



- Lo-Fi Version Support form
Copyrights and abuse reports form
Time is now: 22nd February 2020 - 20:15:43