Welcome Guest ( Log In | Register )

> Autumn Stillness - Demo 1 [demo] (2015), Doom/Death Metal
post Aug 1 2015, 19:49:46
Post #1

Время Мары
**************
Group: Металариец
Posts: 3,107
Releases: 410
From: Харьков
On Forums: 10 years 8 months
Thanks: 8128 time(s)
Ukraine


(IMG:http://metalarea.org/images/audiocovers/2015_Aug/acov_tid249851_thumb.jpg)

*Artist: Autumn Stillness
*Album: Demo 1 [demo]
*Year: 2015
*Genre: Doom/Death Metal
*Country: Japan (IMG:http://metalarea.org/forum/style_images/flags/Japan.png)
*Format: mp3@CBR320kbps
*Size: 24MB

Tracklist:
1. Autumnal Bleakness
2. In The Stillness
******************************
Total playing time: 10:08

Technical info
(IMG:http://metalarea.org/images/spectrogram/2015_Aug/5a8d00ff953a22a45f2b042e9688c512.png)
Input File: 01. Autumnal Bleakness.mp3
Channels : 2
Sample Rate : 44100
Precision : 16-bit
Duration : 00:05:10.71 = 13702135 samples = 23303 CDDA sectors
File Size : 12.6M
Bit Rate : 325k
Sample Encoding: MPEG audio (layer I, II or III)
Comments :
Title=Autumnal Bleakness
Artist=Autumn Stillness
Album=Demo 1
Tracknumber=1
Year=2015
Genre=Death/Doom Metal



Register


Go to the top of the page
  Insert nick Quick quote
+Quote Post
 
Start new topic
Replies (1 - 2)
post Aug 2 2015, 08:34:36
Post #2

Три Литра
***
Group: Завсегдатай
Posts: 247
Releases: 1
On Forums: 10 years 1 week
Thanks: 66 time(s)
Ukraine



Сурово 90-е....


Thanks:
(1) KVRT,
Go to the top of the page
  Insert nick Quick quote
+Quote Post
post Aug 6 2015, 13:56:51
Post #3

Vana Peerukott
**************
Group: Металариец
Posts: 3,114
Releases: 239
From: Київ, Україна
On Forums: 13 years 10 months
Thanks: 3080 time(s)
Ukraine


я бы на слух сказал, что начало 2000х, штаты. (IMG:style_emoticons/default/genius.gif)
симпатично, но мало
Go to the top of the page
  Insert nick Quick quote
+Quote Post

Reply to this topicStart new topic
2 User(s) are reading this topic (2 Guests and 0 Anonymous Users)
0 Members:

 



- Lo-Fi Version Support form
Copyrights and abuse reports form
Time is now: 25th February 2020 - 09:36:42