Welcome Guest ( Log In | Register )

> Gate Of The Silver Star - The Melting And Entwinement Of Æons [demo] (2012), Black Metal
Lion
post Aug 2 2015, 06:39:31
Post #1

Guests team






(IMG:https://metalarea.org/images/audiocovers/2015_Aug/acov_tid249866_thumb.jpg)

*Artist: Gate Of The Silver Star
*Album: The Melting And Entwinement Of Æons [demo]
*Year: 2012
*Genre: Black Metal
*Country: United Kingdom (IMG:https://metalarea.org/forum/style_images/flags/United%20Kingdom.png)
*Format: mp3@CBR320kbps
*Size: 32MB

Tracklist:
1. On The Horns Of Death 06:19
2. The Melting And Entwinement Of Æons 07:48
******************************
Total playing time: 14:07

Technical info
(IMG:https://metalarea.org/images/spectrogram/2015_Aug/4ba384c56ffef2f1cf14e011df4ec67d.png)
Input File: 1.On the Horns of Death.mp3
Channels : 2
Sample Rate : 44100
Precision : 16-bit
Duration : 00:06:19.67 = 16743271 samples = 28475 CDDA sectors
File Size : 15.2M
Bit Rate : 321k
Sample Encoding: MPEG audio (layer I, II or III)
Comments :
Title= On the Horns of Death
Artist=Gate of the Silver Star
Tracknumber=1
Year=2012



Register


Go to the top of the page
  Insert nick Quick quote
+Quote Post
 
Start new topic
Replies (1 - 4)
post Aug 2 2015, 15:46:18
Post #2

Маньяк
**********
Group: Металариец
Posts: 1,485
Releases: 23
From: Spain
On Forums: 11 years 3 weeks
Thanks: 1138 time(s)
Spain


Register


Thanks:
(1) RUSP73,
Go to the top of the page
  Insert nick Quick quote
+Quote Post
post Jun 5 2016, 06:14:35
Post #3

Два Литра
**
Group: Завсегдатай
Posts: 172
Releases: 0
On Forums: 4 years 11 months
Thanks: 3 time(s)
Afghanistan


reupload??
Go to the top of the page
  Insert nick Quick quote
+Quote Post
post Sep 14 2018, 18:50:39
Post #4

holy trident
*********
Group: Металариец
Posts: 979
Releases: 0
On Forums: 5 years 8 months
Thanks: 629 time(s)
Ukraine


перезалейте!
Go to the top of the page
  Insert nick Quick quote
+Quote Post
post Sep 16 2018, 17:05:15
Post #5

...
Group Icon
Group: S-moderation team
Posts: 7,000
Releases: 1286
On Forums: 7 years 6 months
Thanks: 34427 time(s)
Croatia


Register


Go to the top of the page
  Insert nick Quick quote
+Quote Post

Reply to this topicStart new topic
1 User(s) are reading this topic (1 Guests and 0 Anonymous Users)
0 Members:

 



- Lo-Fi Version Support form
Copyrights and abuse reports form
Time is now: 23rd September 2018 - 04:22:13