Welcome Guest ( Log In | Register )

> Throne Of Molok - Beat Of Apocalypse (2014), Industrial Black/Death Metal
post Aug 2 2015, 07:58:51
Post #1

Правь статус, ####!111
**************
Group: Металариец
Posts: 18,539
Releases: 12539
From: Г.Харьков
On Forums: 7 years 4 months
Thanks: 212553 time(s)
Unknown


(IMG:http://metalarea.org/images/audiocovers/2015_Aug/acov_tid249875_thumb.jpg)

*Artist: Throne Of Molok
*Album: Beat Of Apocalypse
*Year: 2014
*Genre: Industrial Black/Death Metal
*Country: Italy (IMG:http://metalarea.org/forum/style_images/flags/Italy.png)
*Format: mp3@CBR320kbps
*Size: 66MB

Tracklist:
1. Beat Of Apocalypse
2. Something Black
3. Atm.Ind.Inferno
4. Tuned By Holocaust
5. Sentinel Possessed
6. Obscure Emotions
7. Evil Invader
8. Walking Death
9. Final Output
10. Seed Of Hate (Revenge Mix)
******************************
Total playing time: 29:56



Technical info
(IMG:http://metalarea.org/images/spectrogram/2015_Aug/09762f19be29a229d3524492d617c223.png)
Input File: 02 Something Black.mp3
Channels : 2
Sample Rate : 44100
Precision : 16-bit
Duration : 00:03:08.44 = 8310292 samples = 14133.1 CDDA sectors
File Size : 7.70M
Bit Rate : 327k
Sample Encoding: MPEG audio (layer I, II or III)
Comments :
Title=Something Black
Artist=Throne of Molok
Album=Beat of Apocalypse
Tracknumber=02/10
Year=2014
Discnumber=1/1



Register


Go to the top of the page
  Insert nick Quick quote
+Quote Post
 
Start new topic
Replies (1 - 2)
Lion
post Aug 2 2015, 08:21:09
Post #2

Guests team






Register


Go to the top of the page
  Insert nick Quick quote
+Quote Post
post Sep 14 2019, 19:55:17
Post #3

Quaerite Lux in Tenebris
***********
Group: Металариец
Posts: 1,992
Releases: 38
From: Micsődőllő
On Forums: 9 years 2 months
Thanks: 3605 time(s)
Unknown


Те же параметры:
Register

Go to the top of the page
  Insert nick Quick quote
+Quote Post

Reply to this topicStart new topic
1 User(s) are reading this topic (1 Guests and 0 Anonymous Users)
0 Members:

 



- Lo-Fi Version Support form
Copyrights and abuse reports form
Time is now: 19th September 2019 - 16:05:23