Welcome Guest ( Log In | Register )

> Merkfolk - The Folk Bringer (2015), Folk Metal
post Aug 4 2015, 21:20:37
Post #1

Время Мары
**************
Group: Металариец
Posts: 3,175
Releases: 448
From: Харьков
On Forums: 11 years 3 months
Thanks: 9138 time(s)
Ukraine


(IMG:http://metalarea.org/images/audiocovers/2015_Aug/acov_tid250059_thumb.jpg)

*Artist: Merkfolk
*Album: The Folk Bringer
*Year: 2015
*Genre: Folk Metal
*Country: Poland (IMG:http://metalarea.org/forum/style_images/flags/Poland.png)
*Format: mp3@CBR320kbps
*Size: 116MB

Tracklist:
1. Intro
2. Nananana
3. Wiła
4. Topielica
5. The Song Of The Possessed
6. Instrumental
7. Weselisko
8. Meadows And Fields
9. Trust
10. Merkfolk
11. Śwagry
12. Wingstone
13. Postrzyżyny
14. Outro
******************************
Total playing time: 51:30

Technical info
(IMG:http://metalarea.org/images/spectrogram/2015_Aug/297ab973490fb34bb1172281d84b9c0c.png)
Input File: 01 Intro.mp3
Channels : 2
Sample Rate : 44100
Precision : 16-bit
Duration : 00:00:43.29 = 1909221 samples = 3246.97 CDDA sectors
File Size : 1.74M
Bit Rate : 321k
Sample Encoding: MPEG audio (layer I, II or III)
Comments :
Title=Intro
Artist=Merkfolk
Album=The Folk Bringer
Tracknumber=01
Year=2015
Genre=Folk Metal



Register


Go to the top of the page
  Insert nick Quick quote
+Quote Post
 
Start new topic
Replies (1 - 4)
post Aug 6 2015, 16:00:48
Post #2

Ъ
**************
Group: Металариец
Posts: 10,224
Releases: 9
On Forums: 11 years 8 months
Thanks: 2064 time(s)
Sweden



Третьесорт.
Go to the top of the page
  Insert nick Quick quote
+Quote Post
post Sep 12 2015, 15:28:10
Post #3

FOLK METAL FEVER
**************
Group: Металариец
Posts: 2,105
Releases: 6
From: Kyiv
On Forums: 12 years 10 months
Thanks: 278 time(s)
Ukraine


Доволен! Однозначно в коллекцию!
Go to the top of the page
  Insert nick Quick quote
+Quote Post
post Sep 5 2020, 14:37:22
Post #4

Group Icon
Group: S-moderation team
Posts: 16,670
Releases: 1441
From: Zagreb
On Forums: 9 years 6 months
Thanks: 75605 time(s)
Croatia


Register


Go to the top of the page
  Insert nick Quick quote
+Quote Post
post Sep 16 2020, 10:18:33
Post #5

Правь статус, ####!111
**************
Group: Металариец
Posts: 3,236
Releases: 0
From: MoscoW
On Forums: 13 years 9 months
Thanks: 2415 time(s)
Russian Federation


Go to the top of the page
  Insert nick Quick quote
+Quote Post

Reply to this topicStart new topic
2 User(s) are reading this topic (2 Guests and 0 Anonymous Users)
0 Members:

 



- Lo-Fi Version Support form
Copyrights and abuse reports form
Time is now: 20th September 2020 - 01:27:20