Welcome Guest ( Log In | Register )

> Sewer - Skvllfvcked Forever (2015), Raw Black Metal (D4)
post Aug 5 2015, 05:06:44
Post #1

Аннигилятор пивА
Group Icon
Group: V.I.P
Posts: 52,360
Releases: 16551
From: Koenigsberg - TILZIT
On Forums: 13 years 8 months
Thanks: 364162 time(s)
Russian Federation


(IMG:https://metalarea.org/images/audiocovers/2015_Aug/acov_tid250062_thumb.jpg)

*Artist: Sewer
*Album: Skvllfvcked Forever
*Year: 2015
*Genre: Raw Black Metal
*Country: United States (IMG:https://metalarea.org/forum/style_images/flags/United%20States.png)
*Format: mp3@CBR320kbps
*Size: 133MB

Tracklist:
01. Archaic Phallus
02. Mass Grave Sexuality
03. Carnival Bloodshit Retribution
04. Anal Blasphemies Of 666 Luciferdom
05. Destroyer Of Satan With A Hammer And A Knife
06. Antihuman Pedosexual In Vitro Anal Decapitation
07. Addicted To Necrodemonic Scorched Cunt Pedosodomy
08. Forkraped By Horny Demons For 666 Hours
09. Unholy Devilcock Sadomasoblasphemy
10. No Mercy In Preteen Sodomy
11. Skvllfvcked Forever
******************************
Total playing time: 53:59

Extended info
This is pure satanic black gore metal.
Sewer is an extreme metal band formed in 2013 by guitarist Lucifer, bassist Goliath and drummer Warlord.
Read more athttp://www.thesatan.com/sewer#FzGYZZ4d6JTyViih.99



Technical info
(IMG:https://metalarea.org/images/spectrogram/2015_Aug/b42f1791c53e086fa3ed74656d042480.png)
Input File: 04. Anal Blasphemies Of 666 Luciferdom.mp3
Channels : 2
Sample Rate : 44100
Precision : 16-bit
Duration : 00:04:06.47 = 10869107 samples = 18484.9 CDDA sectors
File Size : 10.1M
Bit Rate : 327k
Sample Encoding: MPEG audio (layer I, II or III)
Comments :
Title=Anal Blasphemies Of 666 Luciferdom
Artist=Sewer
Album=Skvllfvcked Forever
Tracknumber=04/11
Year=2015



Register


Go to the top of the page
  Insert nick Quick quote
+Quote Post
 
Start new topic
Replies (1 - 4)
Korff
post Aug 5 2015, 09:23:40
Post #2

Guests team






Register
Go to the top of the page
  Insert nick Quick quote
+Quote Post
post Aug 6 2015, 02:51:15
Post #3

Аннигилятор пивА
Group Icon
Group: V.I.P
Posts: 52,360
Releases: 16551
From: Koenigsberg - TILZIT
On Forums: 13 years 8 months
Thanks: 364162 time(s)
Russian Federation


карелия
Register


Go to the top of the page
  Insert nick Quick quote
+Quote Post
post Feb 14 2020, 01:30:18
Post #4

Правь статус, ####!111
**************
Group: Металариец
Posts: 7,405
Releases: 0
From: Москва
On Forums: 10 years 6 months
Thanks: 13687 time(s)
Russian Federation


Перезалейте плз
Go to the top of the page
  Insert nick Quick quote
+Quote Post
post Feb 14 2020, 08:10:51
Post #5

Добрый
**************
Group: Металариец
Posts: 3,239
Releases: 0
On Forums: 1 year 7 months
Thanks: 4147 time(s)
Russian Federation


123 mb/320 kbps
Register


Thanks:
(1) kim666,
Go to the top of the page
  Insert nick Quick quote
+Quote Post

Reply to this topicStart new topic
2 User(s) are reading this topic (2 Guests and 0 Anonymous Users)
0 Members:

 



- Lo-Fi Version Support form
Copyrights and abuse reports form
Time is now: 20th February 2020 - 00:32:31