Welcome Guest ( Log In | Register )

 
Reply to this topicStart new topic
> Inexorable End - Voices Of A Frozen Heart Voces De Un Corazón Helado [demo] (2015), Black Metal
Jacktheripper666
post Aug 9 2015, 12:26:43
Post #1

Guests team






(IMG:http://metalarea.org/images/audiocovers/2015_Aug/acov_tid250266_thumb.jpg)

*Artist: Inexorable End
*Album: Voices Of A Frozen Heart Voces De Un Corazón Helado [demo]
*Year: 2015
*Genre: Black Metal
*Country: Spain (IMG:http://metalarea.org/forum/style_images/flags/Spain.png)
*Format: mp3@CBR320kbps
*Size: 83MB

Tracklist:
1. Voices of a Frozen Heart 07:06
2. In Life... 04:49
3. The Meaning of a Gaze (Fallen Leaves and Thorns) 06:07
4. Voces de un corazón helado 07:05
5. En la vida... 04:49
6. El desafío de una mirada (hojarasca y espino) 06:07
******************************
Total playing time: 36:03



Extended info
Equinox Discos - EQNX10

150 copies
Featuring the songs with English lyrics on side A, and Spanish lyrics on side B.


Technical info
(IMG:http://metalarea.org/images/spectrogram/2015_Aug/5f5c4b08a6c5a547b7cb17bc56e25571.png)
Input File: 01. Voices Of A Frozen Heart.mp3
Channels : 2
Sample Rate : 48000
Precision : 16-bit
Duration : 00:07:06.55 = 20474496 samples ~ 31991.4 CDDA sectors
File Size : 17.2M
Bit Rate : 322k
Sample Encoding: MPEG audio (layer I, II or III)
Comments :
Title=Voices Of A Frozen Heart
Artist=Inexorable End
Album=Voices Of A Frozen Heart / Voces de Un CorazГіn Helado
Tracknumber=01/06
Year=2015
Genre=Black Metal



Register


Go to the top of the page
  Insert nick Quick quote
+Quote Post

Reply to this topicStart new topic
1 User(s) are reading this topic (1 Guests and 0 Anonymous Users)
0 Members:

 



- Lo-Fi Version Support form
Copyrights and abuse reports form
Time is now: 31st March 2020 - 03:35:36