Welcome Guest ( Log In | Register )

> Overactive - Cerebral Cage [ep] (2015), Melodic Death/Thrash Metal
post Aug 10 2015, 16:02:26
Post #1

Правь статус, ####!111
**************
Group: Металариец
Posts: 14,975
Releases: 10265
From: Г.Харьков
On Forums: 6 years 6 months
Thanks: 169326 time(s)
Unknown


(IMG:http://metalarea.org/images/audiocovers/2015_Aug/acov_tid250318_thumb.jpg)

*Artist: Overactive
*Album: Cerebral Cage [ep]
*Year: 2015
*Genre: Melodic Death/Thrash Metal
*Country: Italy (IMG:http://metalarea.org/forum/style_images/flags/Italy.png)
*Format: mp3@CBR320kbps
*Size: 45MB

Tracklist:
01. Blackout 04:15
02. Destroyin'Is The Way 05:20
03. Cerebral Cage 05:28
04. Mass Psychogenic Illness 03:58
******************************
Total playing time: 19:01



Technical info
(IMG:http://metalarea.org/images/spectrogram/2015_Aug/5d0c692798ba42480d8ff67bd89e8337.png)
Input File: Overactive - Cerebral Cage - 02 Destroyin\\\'Is The Way.mp3
Channels : 2
Sample Rate : 44100
Precision : 16-bit
Duration : 00:05:20.53 = 14135197 samples = 24039.5 CDDA sectors
File Size : 13.0M
Bit Rate : 324k
Sample Encoding: MPEG audio (layer I, II or III)
Comments :
Title=Destroyin'Is The Way
Artist=Overactive
Album=Cerebral Cage
Tracknumber=2
Year=2015



Register


Go to the top of the page
  Insert nick Quick quote
+Quote Post
 
Start new topic
Replies (1 - 1)
post Nov 8 2018, 14:41:56
Post #2

Семь Литров
*******
Group: Металариец
Posts: 778
Releases: 273
From: Саранск
On Forums: 7 years 6 months
Thanks: 2021 time(s)
Russian Federation


Register


Thanks:
Go to the top of the page
  Insert nick Quick quote
+Quote Post

Reply to this topicStart new topic
1 User(s) are reading this topic (1 Guests and 0 Anonymous Users)
0 Members:

 



- Lo-Fi Version Support form
Copyrights and abuse reports form
Time is now: 17th November 2018 - 09:29:14