Welcome Guest ( Log In | Register )

> Dark Mirror - Patterns Of Chaos (2015), Death/Thrash Metal (D6)
Lion
post Aug 15 2015, 09:28:32
Post #1

Guests team






(IMG:https://metalarea.org/images/audiocovers/2015_Aug/acov_tid250683_thumb.jpg)

*Artist: Dark Mirror
*Album: Patterns Of Chaos
*Year: 2015
*Genre: Death/Thrash Metal
*Country: United States (IMG:https://metalarea.org/forum/style_images/flags/United%20States.png)
*Format: mp3@CBR320kbps
*Size: 94MB

Tracklist:
1. Patterns of Chaos
2. Psycho Navigator
3. Kairos
4. Immortalized
5. Bat Demon
6. Goddamn
7. HC SVNT DRACONES
8. Desert of Desecration
******************************
Total playing time: 41:21

Extended info
в лоу


Technical info
(IMG:https://metalarea.org/images/spectrogram/2015_Aug/5e8f4c908f2c21242f2b9616accb379f.png)
Input File: 02 Psycho Navigator.mp3
Channels : 2
Sample Rate : 44100
Precision : 16-bit
Duration : 00:02:59.57 = 7918949 samples = 13467.6 CDDA sectors
File Size : 7.19M
Bit Rate : 320k
Sample Encoding: MPEG audio (layer I, II or III)
Comments :
Title=Psycho Navigator
Artist=Dark Mirror
Album=Patterns of Chaos
Tracknumber=2
Year=2015
Genre=137



Register


Thanks:
(2) metala, Rosen,
Go to the top of the page
  Insert nick Quick quote
+Quote Post
 
Start new topic
Replies (1 - 1)
post Jun 10 2018, 16:13:01
Post #2

_ - = # Thrashogolic # = - _ ... а давайте поржём все вместе
**************
Group: Металариец
Posts: 21,095
Releases: 4444
From: 404
On Forums: 9 years 1 week
Thanks: 27491 time(s)
Ukraine


Go to the top of the page
  Insert nick Quick quote
+Quote Post

Reply to this topicStart new topic
1 User(s) are reading this topic (1 Guests and 0 Anonymous Users)
0 Members:

 



- Lo-Fi Version Support form
Copyrights and abuse reports form
Time is now: 24th June 2019 - 11:51:54