Welcome Guest ( Log In | Register )

> Shroud Of The Heretic - Unorthodox Equilibrium (2015), Doom/Death Metal (D4)
post Aug 17 2015, 11:42:10
Post #1

Serial Uploader
Group Icon
Group: V.I.P
Posts: 33,278
Releases: 31556
From: Lithuania
On Forums: 10 years 5 months
Thanks: 360412 time(s)
Lithuania


(IMG:https://metalarea.org/images/audiocovers/2015_Aug/acov_tid250837_thumb.jpg)

*Artist: Shroud Of The Heretic
*Album: Unorthodox Equilibrium
*Year: 2015
*Genre: Doom/Death Metal
*Country: United States (IMG:https://metalarea.org/forum/style_images/flags/United%20States.png)
*Format: mp3@CBR320kbps
*Size: 103MB

Tracklist:
01. Unorthodox Equilibrium 08:18
02. Metempsychosis 10:14
03. Sprawling Black Mass Consummation 09:19
04. Omega Apeiron 13:29
******************************
Total playing time: 41:20



(IMG:https://metalarea.org/images/youtube.png)

Technical info
(IMG:https://metalarea.org/images/spectrogram/2015_Aug/00786f7212302839ea0995929cb6cb06.png)
Input File: 03. Sprawling Black Mass Consummation.mp3
Channels : 2
Sample Rate : 44100
Precision : 16-bit
Duration : 00:09:20.09 = 24700145 samples = 42007 CDDA sectors
File Size : 22.4M
Bit Rate : 320k
Sample Encoding: MPEG audio (layer I, II or III)
Comments :
Title=Sprawling Black Mass Consummation
Artist=Shroud Of The Heretic
Album=Unorthodox Equilibrium
Tracknumber=3
Year=2015
Genre=Death Metal\Rock



Register


Go to the top of the page
  Insert nick Quick quote
+Quote Post
 
Start new topic
Replies (1 - 5)
post Aug 23 2015, 14:21:09
Post #2

Ёлд ХеллоВяйне
Group Icon
Group: V.I.P
Posts: 26,215
Releases: 130
From: Питер
On Forums: 12 years 2 weeks
Thanks: 14501 time(s)
Russian Federation


esoteric-wannabe? Небесперспективно, но пока сыровато.
Go to the top of the page
  Insert nick Quick quote
+Quote Post
post Aug 23 2015, 15:32:45
Post #3

Восемь Литров
********
Group: Металариец
Posts: 852
Releases: 25
From: Ultima Thule
On Forums: 5 years 6 months
Thanks: 1535 time(s)
Japan


ЦИТАТА
esoteric-wannabe?

(IMG:style_emoticons/default/normal_Homerdisgust3.png)
Go to the top of the page
  Insert nick Quick quote
+Quote Post
post Oct 20 2015, 21:33:52
Post #4

antithesis
**************
Group: Металариец
Posts: 2,391
Releases: 30
From: VRN
On Forums: 8 years 5 months
Thanks: 1284 time(s)
Russian Federation


мощный, мрачный, тягучий материал. понравилось.
Go to the top of the page
  Insert nick Quick quote
+Quote Post
post Nov 2 2017, 07:08:55
Post #5

Absorbence
***********
Group: Металариец
Posts: 1,615
Releases: 215
From: Vastland Abyss of Cthulhu
On Forums: 12 years 2 days
Thanks: 3604 time(s)
Canada


Shroud of the Heretic anyone? please


Thanks:
Go to the top of the page
  Insert nick Quick quote
+Quote Post
post Aug 10 2018, 17:44:57
Post #6

Два Литра
**
Group: Завсегдатай
Posts: 147
Releases: 0
From: Madrid
On Forums: 9 years 9 months
Thanks: 25 time(s)
Mexico


From the web
Register


Thanks:
Go to the top of the page
  Insert nick Quick quote
+Quote Post

Reply to this topicStart new topic
2 User(s) are reading this topic (2 Guests and 0 Anonymous Users)
0 Members:

 



- Lo-Fi Version Support form
Copyrights and abuse reports form
Time is now: 14th November 2018 - 02:06:02