Welcome Guest ( Log In | Register )

> 

Здесь релизы с живыми прямыми ссылками на lossless

> Ghost - Meliora (2015), Heavy Metal/Occult Rock
post Aug 19 2015, 08:07:16
Post #1

Правь статус, ####!111
**************
Group: Металариец
Posts: 16,640
Releases: 11297
From: Г.Харьков
On Forums: 6 years 11 months
Thanks: 188349 time(s)
Unknown


(IMG:http://metalarea.org/images/audiocovers/2015_Aug/acov_tid250924_thumb.jpg)

*Artist: Ghost
*Album: Meliora
*Year: 2015
*Genre: Heavy Metal/Occult Rock
*Country: Sweden (IMG:http://metalarea.org/forum/style_images/flags/Sweden.png)
*Format: mp3@CBR320kbps
*Size: 96MB

Tracklist:
1. Spirit 05:15
2. From The Pinnacle To The Pit 04:02
3. Cirice 06:02
4. Spöksonat 00:56
5. He Is 04:13
6. Mummy Dust 04:07
7. Majesty 05:24
8. Devil Church 01:06
9. Absolution 04:50
10. Deus In Absentia 05:37
******************************
Total playing time: 41:32

Technical info
(IMG:http://metalarea.org/images/spectrogram/2015_Aug/b388dcbe0944a6a7244690e4fbc3767e.png)
Input File: 02-From_The_Pinnacle_To_The_Pit.mp3
Channels : 2
Sample Rate : 44100
Precision : 16-bit
Duration : 00:04:02.73 = 10704349 samples = 18204.7 CDDA sectors
File Size : 9.80M
Bit Rate : 323k
Sample Encoding: MPEG audio (layer I, II or III)
Comments :
Title=From The Pinnacle To The Pit
Artist=Ghost
Album=Meliora
Tracknumber=2
Year=2015
Genre=Metal
Discnumber=1



Register


Go to the top of the page
  Insert nick Quick quote
+Quote Post
2 Pages V  < 1 2  
Start new topic
Replies (30 - 31)
post Apr 15 2019, 20:55:44
Post #31

Group: Подсевший
Posts: 24
Releases: 0
On Forums: 9 months 4 days
Thanks: 3 time(s)
Poland


Any working link?
Go to the top of the page
  Insert nick Quick quote
+Quote Post
post Yesterday, 07:40:28
Post #32


Group Icon
Group: S-moderation team
Posts: 9,803
Releases: 1432
From: Zagreb
On Forums: 8 years 1 month
Thanks: 43776 time(s)
Croatia


Register
Go to the top of the page
  Insert nick Quick quote
+Quote Post

2 Pages V  < 1 2
Reply to this topicStart new topic
2 User(s) are reading this topic (2 Guests and 0 Anonymous Users)
0 Members:

 



- Lo-Fi Version Support form
Copyrights and abuse reports form
Time is now: 19th April 2019 - 01:20:09