Welcome Guest ( Log In | Register )

> Desangre - Solo Carniceria (2008), Death Metal
Lion
post Aug 20 2015, 08:51:48
Post #1

Guests team






(IMG:https://metalarea.org/images/audiocovers/2015_Aug/acov_tid250981_thumb.jpg)

*Artist: Desangre
*Album: Solo Carniceria
*Year: 2008
*Genre: Death Metal
*Country: Mexico (IMG:https://metalarea.org/forum/style_images/flags/Mexico.png)
*Format: mp3@CBR320kbps
*Size: 125MB

Tracklist:
1. Se Los Carga La Chingada
2. Masacre Sin Razon
3. Solo Carniceria
4. Nuestra Propia Mierda
5. Porfirio
6. Machacahuevos
7. Destripador
8. Los Ojos Del Asesino
9. Putrido
10. JD
11. Enfermos De Poder
12. Zorra Santurrona
13. Violando Mujeres Muertas
14. Deskisiada
15. Falsa Ideologia
16. Realidades Paralelas
17. Sigue A Betonas
18. Maldito Agujero
******************************
Total playing time: 54:52

Technical info
(IMG:https://metalarea.org/images/spectrogram/2015_Aug/e2e0b0aa8a125360833751d941a5b9d9.png)
Input File: Desangre (Mex) - Solo Carniceria - 01 - Se Los Carga La Chingada-DRAV.mp3
Channels : 2
Sample Rate : 44100
Precision : 16-bit
Duration : 00:01:30.78 = 4003310 samples = 6808.35 CDDA sectors
File Size : 3.63M
Bit Rate : 320k
Sample Encoding: MPEG audio (layer I, II or III)
Comments :
Title=Se Los Carga La Chingada
Artist=Desangre
Album=Solo Carniceria
Tracknumber=1/24
Year=2008
Genre=Death Metal



Register


This post has been edited by Абигор: Aug 20 2015, 12:20:31


Go to the top of the page
  Insert nick Quick quote
+Quote Post
 
Start new topic
Replies (1 - 4)
post Aug 20 2015, 16:16:43
Post #2

hearer & reader
**************
Group: Металариец
Posts: 8,705
Releases: 140
From: Moscow
On Forums: 12 years 8 months
Thanks: 8741 time(s)
Russian Federation



Простенько, но жирненько.
Go to the top of the page
  Insert nick Quick quote
+Quote Post
post Aug 31 2015, 20:00:19
Post #3

brutalcesar
**************
Group: Металариец
Posts: 17,930
Releases: 67
From: Рязань
On Forums: 11 years 4 months
Thanks: 9778 time(s)
Russian Federation


Вот такое мне по душе!!
Просто, грязно и немного замахивает в грайнд.

ПС/ А как восхитительно звучит рабочий барабан (IMG:style_emoticons/default/20.gif)
Go to the top of the page
  Insert nick Quick quote
+Quote Post
post Aug 8 2019, 21:23:49
Post #4

Три Литра
***
Group: Завсегдатай
Posts: 252
Releases: 0
From: Florida
On Forums: 7 years 5 months
Thanks: 11 time(s)
United States


plz re upload thanks!
Go to the top of the page
  Insert nick Quick quote
+Quote Post
post Aug 8 2019, 22:15:37
Post #5

Социопат.Маргинал. Мизантроп.Нигилист. Перверзный нарциссист.
**************
Group: Металариец
Posts: 5,566
Releases: 667
From: Город-герой Ленинград
On Forums: 9 years 3 months
Thanks: 6400 time(s)
Russian Federation


Register


Thanks:
Go to the top of the page
  Insert nick Quick quote
+Quote Post

Reply to this topicStart new topic
2 User(s) are reading this topic (2 Guests and 0 Anonymous Users)
0 Members:

 



- Lo-Fi Version Support form
Copyrights and abuse reports form
Time is now: 3rd June 2020 - 09:31:22