Welcome Guest ( Log In | Register )

> Desangre - Resurrección (2013), Death Metal
Lion
post Aug 20 2015, 08:53:32
Post #1

Guests team






(IMG:https://metalarea.org/images/audiocovers/2015_Aug/acov_tid250982_thumb.gif)

*Artist: Desangre
*Album: Resurrección
*Year: 2013
*Genre: Death Metal
*Country: Mexico (IMG:https://metalarea.org/forum/style_images/flags/Mexico.png)
*Format: mp3@CBR320kbps
*Size: 77MB

Tracklist:
1. Sicopata 03:00
2. Muerte Justicia 02:00
3. Voraz 03:15
4. Escoria Humana 02:50
5. R.E.V. 03:28
6. Espejismo 01:58
7. Resurrección 02:04
8. Prisión De Carne 02:18
9. Versus 03:45
10. Supremacia 02:16
11. Sepultado Antes De Morir 03:31
12. Fuego Interno 03:31
******************************
Total playing time: 33:56

Technical info
(IMG:https://metalarea.org/images/spectrogram/2015_Aug/d39c38de1b37d27a74f1cecb30ad0c7e.png)
Input File: Desangre (Mex) - Resurreccion - 02 - Muerte justicia-DRAV.mp3
Channels : 2
Sample Rate : 44100
Precision : 16-bit
Duration : 00:01:59.90 = 5287766 samples = 8992.8 CDDA sectors
File Size : 4.80M
Bit Rate : 320k
Sample Encoding: MPEG audio (layer I, II or III)
Comments :
Title=Muerte justicia
Artist=Desangre
Album=Resurreccion
Tracknumber=2/12
Year=2013
Genre=Death Metal



Register


Go to the top of the page
  Insert nick Quick quote
+Quote Post
 
Start new topic
Replies (1 - 4)
post Aug 20 2015, 16:16:44
Post #2

hearer & reader
**************
Group: Металариец
Posts: 8,869
Releases: 145
From: Moscow
On Forums: 12 years 11 months
Thanks: 9141 time(s)
Russian Federation


Go to the top of the page
  Insert nick Quick quote
+Quote Post
DerUbermensch
post Aug 20 2015, 16:30:46
Post #3

Guests team






Сколько нам открытий чудных..

Есть и Sangre и Desangre... столько всего есть в этом мире...
Go to the top of the page
  Insert nick Quick quote
+Quote Post
post Aug 8 2019, 21:25:47
Post #4

Три Литра
***
Group: Завсегдатай
Posts: 252
Releases: 0
From: Florida
On Forums: 7 years 8 months
Thanks: 11 time(s)
United States


plz re upload thanks
Go to the top of the page
  Insert nick Quick quote
+Quote Post
post Aug 8 2019, 22:14:47
Post #5

Социопат.Маргинал. Мизантроп.Нигилист. Перверзный нарциссист.
**************
Group: Металариец
Posts: 5,570
Releases: 667
From: Город-герой Ленинград
On Forums: 9 years 6 months
Thanks: 6433 time(s)
Russian Federation


Register


Thanks:
Go to the top of the page
  Insert nick Quick quote
+Quote Post

Reply to this topicStart new topic
1 User(s) are reading this topic (1 Guests and 0 Anonymous Users)
0 Members:

 



- Lo-Fi Version Support form
Copyrights and abuse reports form
Time is now: 12th August 2020 - 07:54:22