Welcome Guest ( Log In | Register )

> Carnation - Cemetery Of The Insane [ep] (2015), Old School Death Metal
post Aug 20 2015, 13:06:40
Post #1

Правь статус, ####!111
**************
Group: Металариец
Posts: 23,526
Releases: 16459
From: Г.Харьков
On Forums: 8 years 5 months
Thanks: 310290 time(s)
Unknown


(IMG:http://metalarea.org/images/audiocovers/2015_Aug/acov_tid251004_thumb.jpg)

*Artist: Carnation
*Album: Cemetery Of The Insane [ep]
*Year: 2015
*Genre: Old School Death Metal
*Country: Belgium (IMG:http://metalarea.org/forum/style_images/flags/Belgium.png)
*Format: mp3@CBR320kbps
*Size: 43MB

Tracklist:
1. Explosive Cadavers 03:36
2. Cemetery of the Insane 04:12
3. The Rituals of Flesh 04:40
4. Delusions of Power 03:29
5. The Great Deceiver 03:43
******************************
Total playing time: 19:40



Technical info
(IMG:http://metalarea.org/images/spectrogram/2015_Aug/8ce0850f4ecbcdc873603290f85f654a.png)
Input File: 01 - Explosive Cadavers.mp3
Channels : 2
Sample Rate : 44100
Precision : 16-bit
Duration : 00:03:34.20 = 9446264 samples = 16065.1 CDDA sectors
File Size : 8.57M
Bit Rate : 320k
Sample Encoding: MPEG audio (layer I, II or III)
Comments :
Title=Explosive Cadavers
Artist=Carnation
Album=Cemetery Of The Insane
Tracknumber=1
Year=2015
Genre=Old School Death Metal



Register


Go to the top of the page
  Insert nick Quick quote
+Quote Post
 
Start new topic
Replies (1 - 9)
post Aug 20 2015, 17:53:57
Post #2

Семь Литров
*******
Group: Металариец
Posts: 708
Releases: 0
From: Одесса-мама
On Forums: 11 years 9 months
Thanks: 244 time(s)
Ukraine


Спасибо!
Душевная ВЕЩЬ!
Go to the top of the page
  Insert nick Quick quote
+Quote Post
post Aug 20 2015, 19:39:04
Post #3

brutalcesar
**************
Group: Металариец
Posts: 17,996
Releases: 67
From: Рязань
On Forums: 11 years 9 months
Thanks: 9922 time(s)
Russian Federation


Благодарю!!
С марта лежал в лоу.

Вот пару зеркал:
Register



Go to the top of the page
  Insert nick Quick quote
+Quote Post
post Aug 28 2015, 18:01:08
Post #4

Black is beautiful
***********
Group: Металариец
Posts: 1,817
Releases: 4
On Forums: 8 years 7 months
Thanks: 366 time(s)
Unknown


Absolutely great !!

(IMG:style_emoticons/default/metaler.gif) (IMG:style_emoticons/default/metaler.gif) (IMG:style_emoticons/default/metaler.gif)
Go to the top of the page
  Insert nick Quick quote
+Quote Post
post Jun 10 2018, 06:28:21
Post #5

Социопат.Маргинал. Мизантроп.Нигилист. Перверзный нарциссист.
**************
Group: Металариец
Posts: 5,571
Releases: 667
From: Город-герой Ленинград
On Forums: 9 years 8 months
Thanks: 6455 time(s)
Russian Federation


Register


Go to the top of the page
  Insert nick Quick quote
+Quote Post
post Sep 2 2018, 07:22:04
Post #6

Crush! Kill! Destroy!
**************
Group: Металариец
Posts: 5,546
Releases: 15
From: Kaliningrad
On Forums: 12 years 11 months
Thanks: 5226 time(s)
Russian Federation


Дебютник у них жутко угарный получился! Всем искать и слушать!
Go to the top of the page
  Insert nick Quick quote
+Quote Post
post Sep 3 2018, 14:27:30
Post #7

Мегаманьяк
***********
Group: Металариец
Posts: 1,715
Releases: 0
From: Санкт-Петербург
On Forums: 11 years 2 months
Thanks: 727 time(s)
Russian Federation


ЦИТАТА(Dmitry1977 @ Sep 2 2018, 10:22:04) *
Дебютник у них жутко угарный получился! Всем искать и слушать!

+ много...
Хотя чего искать-то: Carnation - Chapel Of Abhorrence (2018)
Go to the top of the page
  Insert nick Quick quote
+Quote Post
post Sep 5 2018, 07:06:20
Post #8

Мегаманьяк
***********
Group: Металариец
Posts: 1,715
Releases: 0
From: Санкт-Петербург
On Forums: 11 years 2 months
Thanks: 727 time(s)
Russian Federation


А ЕР оказался хорош (пусть и попроще/посырее чем полноформат 2018)
Go to the top of the page
  Insert nick Quick quote
+Quote Post
post Sep 17 2020, 16:22:30
Post #9

Group: Подсевший
Posts: 39
Releases: 0
From: КЗ, У-Ка
On Forums: 12 years 1 month
Thanks: 0 time(s)
Kazakhstan


Прошу сделать перезалив...
Go to the top of the page
  Insert nick Quick quote
+Quote Post
post Sep 17 2020, 16:35:02
Post #10

Правь статус, ####!111
**************
Group: Металариец
Posts: 23,526
Releases: 16459
From: Г.Харьков
On Forums: 8 years 5 months
Thanks: 310290 time(s)
Unknown


ЦИТАТА(--AK-- @ 17th September 2020 - 16:22:30) *
Прошу сделать перезалив...

320 48 mb
Register


Thanks:
(1) --AK--,
Go to the top of the page
  Insert nick Quick quote
+Quote Post

Reply to this topicStart new topic
1 User(s) are reading this topic (1 Guests and 0 Anonymous Users)
0 Members:

 



- Lo-Fi Version Support form
Copyrights and abuse reports form
Time is now: 26th October 2020 - 19:32:08