Welcome Guest ( Log In | Register )

> Dawn Of Dissolution - Nightfrost [ep] (2015), Melodic Death/Power Metal
post Aug 22 2015, 11:36:32
Post #1

Правь статус, ####!111
**************
Group: Металариец
Posts: 25,808
Releases: 18479
From: Г.Харьков
On Forums: 8 years 11 months
Thanks: 365087 time(s)
Unknown


(IMG:http://metalarea.org/images/audiocovers/2015_Aug/acov_tid251173_thumb.jpg)

*Artist: Dawn Of Dissolution
*Album: Nightfrost [ep]
*Year: 2015
*Genre: Melodic Death/Power Metal
*Country: United States (IMG:http://metalarea.org/forum/style_images/flags/United%20States.png)
*Format: mp3@CBR320kbps
*Size: 68MB

Tracklist:
1. Awakening of a New Horizon 02:17
2. Bloodshot at Dawn 04:50
3. Frozen Conquest 09:51
4. Twilight 02:06
5. Nightfrost 10:42
******************************
Total playing time: 29:46



Technical info
(IMG:http://metalarea.org/images/spectrogram/2015_Aug/9523222762b6e2bf3a8daab3ddb28a3e.png)
Input File: Dawn Of Dissolution - Nightfrost - 02 Bloodshot at Dawn.mp3
Channels : 2
Sample Rate : 44100
Precision : 16-bit
Duration : 00:04:50.20 = 12797600 samples = 21764.6 CDDA sectors
File Size : 11.7M
Bit Rate : 324k
Sample Encoding: MPEG audio (layer I, II or III)
Comments :
Title=Bloodshot at Dawn
Artist=Dawn Of Dissolution
Album=Nightfrost
Tracknumber=2
Year=2015



Register


Go to the top of the page
  Insert nick Quick quote
+Quote Post
 
Start new topic
Replies (1 - 1)
post Aug 22 2015, 14:57:55
Post #2

Два Литра
**
Group: Завсегдатай
Posts: 151
Releases: 0
On Forums: 13 years 3 months
Thanks: 17 time(s)
Russian Federation


Нормально. Напомнило первый альбом Catamenia.


Thanks:
(1) GlebKKK,
Go to the top of the page
  Insert nick Quick quote
+Quote Post

Reply to this topicStart new topic
2 User(s) are reading this topic (2 Guests and 0 Anonymous Users)
0 Members:

 



- Lo-Fi Version Support form
Copyrights and abuse reports form
Time is now: 21st April 2021 - 15:24:59