Welcome Guest ( Log In | Register )

> Choroba - Choroba [ep] (2015), Melodic Black/Thrash Metal
post Aug 24 2015, 00:28:55
Post #1

Аннигилятор пивА
Group Icon
Group: V.I.P
Posts: 52,360
Releases: 16550
From: Koenigsberg - TILZIT
On Forums: 15 years 7 months
Thanks: 368822 time(s)
Russian Federation


(IMG:https://metalarea.org/images/audiocovers/2015_Aug/acov_tid251293_thumb.jpg)

*Artist: Choroba
*Album: Choroba [ep]
*Year: 2015
*Genre: Melodic Black/Thrash Metal
*Country: Germany (IMG:https://metalarea.org/forum/style_images/flags/Germany.png)
*Format: mp3@CBR320kbps
*Size: 56MB

Tracklist:
1. Riss 03:32
2. Stunned 04:58
3. Projektion 04:42
4. Mother 04:28
5. Empfang 04:25
******************************
Total playing time: 22:05



Extended info
Классные парниши, заводной мелодик блэк с трэшевыми ритмами иногда на грани с мелодэтом, как-то так, бошка/ноги так и рвутся в пляс, прям Хачатурян с саблями(или огнеметом, забыл).


Technical info
(IMG:https://metalarea.org/images/spectrogram/2015_Aug/9f2d5c3789c2d3284426c6c0a9e4af82.png)
Input File: Choroba - Choroba - 01 Riss.mp3
Channels : 2
Sample Rate : 44100
Precision : 16-bit
Duration : 00:03:32.09 = 9352949 samples = 15906.4 CDDA sectors
File Size : 8.77M
Bit Rate : 331k
Sample Encoding: MPEG audio (layer I, II or III)
Comments :
Title=Riss
Artist=Choroba
Album=Choroba
Tracknumber=1
Year=2015



Register


Go to the top of the page
  Insert nick Quick quote
+Quote Post
 
Start new topic
Replies (1 - 2)
post Jul 8 2021, 18:56:24
Post #2

Четыре Литра
****
Group: Металариец
Posts: 330
Releases: 0
From: Russian Federation
On Forums: 15 years 4 months
Thanks: 48 time(s)
Russian Federation


Thank you very much, but unfortunately the link is no longer available (IMG:style_emoticons/default/6.gif)
Can anyone help?
Go to the top of the page
  Insert nick Quick quote
+Quote Post
post Jul 8 2021, 20:29:13
Post #3

Правь статус, ####!111
**************
Group: Металариец
Posts: 2,795
Releases: 0
On Forums: 6 years 8 months
Thanks: 3686 time(s)
Russian Federation


320
Register


Thanks:
Go to the top of the page
  Insert nick Quick quote
+Quote Post

Reply to this topicStart new topic
2 User(s) are reading this topic (2 Guests and 0 Anonymous Users)
0 Members:

 



- Lo-Fi Version Support form
Copyrights and abuse reports form
Time is now: 24th January 2022 - 14:57:07