Welcome Guest ( Log In | Register )

> Assaultery - Sentenced To Burn [ep] (2015), Blackened Thrash Metal (D)
post Aug 24 2015, 21:42:25
Post #1

Правь статус, ####!111
**************
Group: Металариец
Posts: 24,621
Releases: 17439
From: Г.Харьков
On Forums: 8 years 8 months
Thanks: 336692 time(s)
Unknown


(IMG:http://metalarea.org/images/audiocovers/2015_Aug/acov_tid251370_thumb.jpg)

*Artist: Assaultery
*Album: Sentenced To Burn [ep]
*Year: 2015
*Genre: Blackened Thrash Metal
*Country: Sweden (IMG:http://metalarea.org/forum/style_images/flags/Sweden.png)
*Format: mp3@CBR320kbps
*Size: 38MB

Tracklist:
01. Sentenced To Burn 04:08
02. Barbarian Wrath 04:51
03. The Last Dawn 05:09
04. Sodomaniac 03:04
******************************
Total playing time: 17:12



Technical info
(IMG:http://metalarea.org/images/spectrogram/2015_Aug/31d8f805f7917ef79c5f2cc216be4a9d.png)
Input File: 02 - Barbarian Wrath.mp3
Channels : 2
Sample Rate : 44100
Precision : 16-bit
Duration : 00:04:51.40 = 12850740 samples = 21855 CDDA sectors
File Size : 11.7M
Bit Rate : 320k
Sample Encoding: MPEG audio (layer I, II or III)
Comments :
Title=Berbarian Wrath
Artist=Assaultery
Album=Sentenced To Burn
Tracknumber=2
Year=2015
Genre=Blackened Thrash Metal



Register


Go to the top of the page
  Insert nick Quick quote
+Quote Post
 
Start new topic
Replies (1 - 2)
post Nov 22 2020, 14:01:51
Post #2

Old School Metal
**************
Group: Металариец
Posts: 3,335
Releases: 0
From: г. Минск
On Forums: 11 years 10 months
Thanks: 7678 time(s)
Belarus



Format: mp3@320kbps
Register


Thanks:
Go to the top of the page
  Insert nick Quick quote
+Quote Post
post Nov 22 2020, 14:07:41
Post #3

Group Icon
Group: S-moderation team
Posts: 18,817
Releases: 1441
From: Zagreb
On Forums: 9 years 10 months
Thanks: 86722 time(s)
Croatia


Register


Go to the top of the page
  Insert nick Quick quote
+Quote Post

Reply to this topicStart new topic
1 User(s) are reading this topic (1 Guests and 0 Anonymous Users)
0 Members:

 



- Lo-Fi Version Support form
Copyrights and abuse reports form
Time is now: 21st January 2021 - 22:48:05