Welcome Guest ( Log In | Register )

> Riwen - The Cold (2015), Post-Metal/Crust
post Aug 28 2015, 06:04:53
Post #1

Аннигилятор пивА
Group Icon
Group: V.I.P
Posts: 52,358
Releases: 16555
From: Koenigsberg - TILZIT
On Forums: 13 years 5 months
Thanks: 363012 time(s)
Russian Federation


(IMG:https://metalarea.org/images/audiocovers/2015_Aug/acov_tid251590_thumb.png)

*Artist: Riwen
*Album: The Cold
*Year: 2015
*Genre: Post-Metal/Crust
*Country: Sweden (IMG:https://metalarea.org/forum/style_images/flags/Sweden.png)
*Format: mp3@CBR320kbps
*Size: 103MB

Tracklist:
01. Crucifix
02. The Blackest Blood
03. Orcus
04. Strife and Hate
05. Daymares
06. Hades Trail
07. Stalking a Wounded Wolf
08. The Curlew
09. Rise Up
10. I See War
11. Voices of Revolt
12. Dödens Källa
******************************
Total playing time: 32:50

Preview 1

Extended info
project of Cult Of Luna guitarist/vocalist - Johannes Persson


Technical info
(IMG:https://metalarea.org/images/spectrogram/2015_Aug/1ca8874bf981d6b9141d3499a1d96408.png)
Input File: 04. Strife and Hate.mp3
Channels : 2
Sample Rate : 44100
Precision : 16-bit
Duration : 00:01:55.19 = 5079747 samples = 8639.03 CDDA sectors
File Size : 6.19M
Bit Rate : 430k
Sample Encoding: MPEG audio (layer I, II or III)
Comments :
Title=Strife and Hate
Artist=Riwen
Album=The Cold
Tracknumber=4/12
Year=2015



Register


Go to the top of the page
  Insert nick Quick quote
+Quote Post
 
Start new topic
Replies (1 - 1)
post Sep 29 2019, 06:53:04
Post #2

Маньяк
**********
Group: Металариец
Posts: 1,217
Releases: 91
On Forums: 6 years 1 month
Thanks: 2498 time(s)
Unknown


Reuploaded
Register


Thanks:
(1) artscald,
Go to the top of the page
  Insert nick Quick quote
+Quote Post

Reply to this topicStart new topic
2 User(s) are reading this topic (2 Guests and 0 Anonymous Users)
0 Members:

 



- Lo-Fi Version Support form
Copyrights and abuse reports form
Time is now: 19th November 2019 - 06:33:07