Welcome Guest ( Log In | Register )

> Magna Umbra - Someone At Your Door (2015), Symphonic Metal
post Aug 28 2015, 13:41:34
Post #1

Serial Uploader
Group Icon
Group: V.I.P
Posts: 37,390
Releases: 35569
From: Lithuania
On Forums: 12 years 3 months
Thanks: 425252 time(s)
Lithuania


(IMG:https://metalarea.org/images/audiocovers/2015_Aug/acov_tid251626_thumb.jpg)

*Artist: Magna Umbra
*Album: Someone At Your Door
*Year: 2015
*Genre: Symphonic Metal
*Country: Brazil (IMG:https://metalarea.org/forum/style_images/flags/Brazil.png)
*Format: mp3@VBR237kbps
*Size: 83MB

Tracklist:
01. I Am My Own God 04:48
02. Dolce Ardor 03:04
03. About Stars 05:34
04. Hark Manat 05:44
05. Is Over 04:01
06. Abysso 02:30
07. Insane 05:14
08. Force To Face 04:23
09. Beyond Forever 06:46
10. Someone At Your Door 04:22
******************************
Total playing time: 46:26


(IMG:https://metalarea.org/images/youtube.png)

Extended info
(IMG:http://metalarea.org/images/spectrogram/2015_Aug/95bdc3b695d37ad9a553ab8f2bc1e5a4.png)
Input File: 09 - Beyond Forever.mp3
Channels : 2
Sample Rate : 44100
Precision : 16-bit
Duration : 00:06:46.73 = 17936617 samples = 30504.5 CDDA sectors
File Size : 12.6M
Bit Rate : 248k
Sample Encoding: MPEG audio (layer I, II or III)
Comments :
Title=Beyond Forever
Artist=Magna Umbra
Album=Someone at your door
Tracknumber=9
Year=2015
Genre=Metal


Register


Go to the top of the page
  Insert nick Quick quote
+Quote Post
 
Start new topic
Replies (1 - 1)
post Sep 16 2020, 18:57:12
Post #2

Маньяк
**********
Group: Металариец
Posts: 1,208
Releases: 431
From: Саранск
On Forums: 9 years 4 months
Thanks: 3732 time(s)
Russian Federation


320
Register
Go to the top of the page
  Insert nick Quick quote
+Quote Post

Reply to this topicStart new topic
1 User(s) are reading this topic (1 Guests and 0 Anonymous Users)
0 Members:

 



- Lo-Fi Version Support form
Copyrights and abuse reports form
Time is now: 20th September 2020 - 03:09:35