Welcome Guest ( Log In | Register )

> Kraanium - Chronicles Of Perversion (2015), Brutal Death Metal
post Sep 4 2015, 12:28:26
Post #1

Serial Uploader
Group Icon
Group: V.I.P
Posts: 33,056
Releases: 31341
From: Lithuania
On Forums: 10 years 3 months
Thanks: 358558 time(s)
Lithuania


(IMG:https://metalarea.org/images/audiocovers/2015_Sep/acov_tid252132_thumb.jpg)

*Artist: Kraanium
*Album: Chronicles Of Perversion
*Year: 2015
*Genre: Brutal Death Metal
*Country: Norway (IMG:https://metalarea.org/forum/style_images/flags/Norway.png)
*Format: mp3@VBR246kbps
*Size: 73MB

Tracklist:
01. Rock Filled Orifice 04:15
02. Human Skin Fuck Doll 03:15
03. Hung By Your Entrails 03:10
04. Destined For Surgical Defilement 03:44
05. Evisceration Of Pre-Teen Cadavers 04:09
06. Chronicles Of Perversion 03:11
07. Acid Cumbustion 03:12
08. Rusty Knife Defloration 03:18
09. Fermented Uteral Mastication 03:16
10. Sodomize Her Headless Corpse 03:38
11. Revisitate To Mutilate 04:52
******************************
Total playing time: 40:00

(IMG:https://metalarea.org/images/myspace.png)


(IMG:https://metalarea.org/images/youtube.png)

Extended info
Scene CD-rip:

(IMG:http://metalarea.org/images/spectrogram/2015_Sep/42aa9ec08034462e5e8acb7b2418f6b5.png)
Input File: 02-kraanium-human_skin_fuck_doll.mp3
Channels : 2
Sample Rate : 44100
Precision : 16-bit
Duration : 00:03:15.08 = 8603116 samples = 14631.1 CDDA sectors
File Size : 6.08M
Bit Rate : 249k
Sample Encoding: MPEG audio (layer I, II or III)
Comments :
Title=Human Skin Fuck Doll
Artist=Kraanium
Album=Chronicles Of Perversion
Tracknumber=2/11
Year=2015
Genre=Death Metal
Discnumber=1


Register


This post has been edited by DarkHorde: Feb 5 2016, 14:26:25


Go to the top of the page
  Insert nick Quick quote
+Quote Post
 
Start new topic
Replies (1 - 8)
Lion
post Sep 4 2015, 17:04:06
Post #2

Guests team






Register
сd-rip 320


Go to the top of the page
  Insert nick Quick quote
+Quote Post
post Sep 4 2015, 18:54:53
Post #3

.....
**************
Group: Металариец
Posts: 2,779
Releases: 109
On Forums: 9 years 1 month
Thanks: 3879 time(s)
Unknown


Нормально, стандартно для них
Go to the top of the page
  Insert nick Quick quote
+Quote Post
post Sep 4 2015, 18:58:20
Post #4
BAN
Banned till
Mar 28 2020, 14:29:21



(IMG:style_emoticons/default/25.gif) (IMG:style_emoticons/default/pray.gif) (IMG:style_emoticons/default/metaler.gif) (IMG:style_emoticons/default/10.gif) (IMG:style_emoticons/default/8.gif)
Go to the top of the page
  Insert nick Quick quote
+Quote Post
post Sep 5 2015, 09:09:06
Post #5

Groovy
****
Group: Металариец
Posts: 353
Releases: 53
From: Владимирская обл.
On Forums: 11 years 9 months
Thanks: 866 time(s)
Russian Federation


Чет жира поубавилось, но горох вещь, да и брутала слушабельного давно не было. В целом нормально.
Go to the top of the page
  Insert nick Quick quote
+Quote Post
post Sep 5 2015, 11:06:42
Post #6
BAN
Banned till
Nov 2 2018, 12:28:53



Не нужны.


Thanks:
(1) Chasm,
Go to the top of the page
  Insert nick Quick quote
+Quote Post
post Jan 26 2016, 14:12:47
Post #7

Правь статус, ####!111
**************
Group: Металариец
Posts: 3,297
Releases: 9
From: Москва и МО
On Forums: 12 years 2 months
Thanks: 807 time(s)
Russian Federation


С первой прослушки совсем не понравилось, а потом как-то вошел во вкус. Недурно так в целом, не шибко банально.
Но и не настолько уж круто, чтобы впиливать 100%, как кто-то огалтелый на метал-архивах оценил )
Добротно, в лучших традициях девормента.
Go to the top of the page
  Insert nick Quick quote
+Quote Post
post Mar 21 2016, 03:02:20
Post #8

Маньяк
**********
Group: Металариец
Posts: 1,254
Releases: 18
From: Lake-City
On Forums: 9 years 3 months
Thanks: 2243 time(s)
Russian Federation


Register


Thanks:
Go to the top of the page
  Insert nick Quick quote
+Quote Post
post Nov 14 2017, 20:33:48
Post #9

Всё это уже было...
*******
Group: Металариец
Posts: 761
Releases: 25
From: Ingermanland, suburb of Petrograd.
On Forums: 10 years 11 months
Thanks: 730 time(s)
Russian Federation


2015 - Chronicles Of Perversion
mp3 92 mb 320kbps
Register
Go to the top of the page
  Insert nick Quick quote
+Quote Post

Reply to this topicStart new topic
1 User(s) are reading this topic (1 Guests and 0 Anonymous Users)
0 Members:

 



- Lo-Fi Version Support form
Copyrights and abuse reports form
Time is now: 19th September 2018 - 14:09:03