Welcome Guest ( Log In | Register )

> Eleine - Eleine (2015), Symphonic Metal
post Sep 6 2015, 01:23:26
Post #1

Serial Uploader
Group Icon
Group: V.I.P
Posts: 32,863
Releases: 31159
From: Lithuania
On Forums: 10 years 1 month
Thanks: 356981 time(s)
Lithuania


(IMG:http://metalarea.org/images/audiocovers/2015_Sep/acov_tid252256_thumb.jpg)

*Artist: Eleine
*Album: Eleine
*Year: 2015
*Genre: Symphonic Metal
*Country: Sweden (IMG:http://metalarea.org/forum/style_images/flags/Sweden.png)
*Format: mp3@CBR320kbps
*Size: 78MB

Tracklist:
01. Land Beyond Sanity
02. Destiny
03. Gathering Storm
04. Devotion
05. Turn To Dust
06. A Glimpse Of Hope
07. A Sin
08. Death Incarnate
******************************
Total playing time: 31:39



Technical info
(IMG:http://metalarea.org/images/spectrogram/2015_Sep/d56384e1138576a2fb4607dab7f7cd59.png)
Input File: 06. A Glimpse Of Hope.mp3
Channels : 2
Sample Rate : 44100
Precision : 16-bit
Duration : 00:01:38.34 = 4336662 samples = 7375.28 CDDA sectors
File Size : 4.35M
Bit Rate : 354k
Sample Encoding: MPEG audio (layer I, II or III)
Comments :
Title=A Glimpse Of Hope
Artist=Eleine
Album=Eleine
Tracknumber=06/08
Year=2015



Register


Go to the top of the page
  Insert nick Quick quote
+Quote Post
 
Start new topic
Replies (1 - 6)
post Sep 13 2015, 08:50:21
Post #2

Правь статус, ####!111
**************
Group: Металариец
Posts: 2,379
Releases: 11
From: Canada
On Forums: 11 years 1 month
Thanks: 1490 time(s)
Canada


Go to the top of the page
  Insert nick Quick quote
+Quote Post
post Sep 21 2015, 17:55:32
Post #3

Перевозчик
**************
Group: Металариец
Posts: 2,745
Releases: 0
On Forums: 10 years 2 weeks
Thanks: 565 time(s)
Russian Federation




Thanks:
(1) kakha_k,
Go to the top of the page
  Insert nick Quick quote
+Quote Post
post Sep 27 2015, 08:13:17
Post #4

No More Tears
**************
Group: Металариец
Posts: 4,933
Releases: 115
From: Тбилиси, Грузия
On Forums: 11 years 11 months
Thanks: 2341 time(s)
Georgia


Очень слабая работа на мой взгляд.
Go to the top of the page
  Insert nick Quick quote
+Quote Post
post Apr 16 2018, 12:21:45
Post #5

Литр
*
Group: Подсевший
Posts: 78
Releases: 0
On Forums: 10 years 3 months
Thanks: 0 time(s)
Russian Federation


Is a reup pssible? (IMG:style_emoticons/default/pray.gif)
Go to the top of the page
  Insert nick Quick quote
+Quote Post
post Apr 16 2018, 22:57:25
Post #6

Going home. Flying high.
**************
Group: Металариец
Posts: 12,228
Releases: 0
From: The Land of Shadows
On Forums: 11 years 11 months
Thanks: 16972 time(s)
Russian Federation


from web
Register
Go to the top of the page
  Insert nick Quick quote
+Quote Post
post Apr 17 2018, 00:15:56
Post #7

Победитель судьбы
**************
Group: Металариец
Posts: 5,022
Releases: 0
From: Страны Мамонтов
On Forums: 11 years 5 months
Thanks: 1708 time(s)
Antarctica


ЦИТАТА(kakha_k @ Sep 27 2015, 10:13:17) *
Очень слабая работа на мой взгляд.

И скучная притом
Go to the top of the page
  Insert nick Quick quote
+Quote Post

Reply to this topicStart new topic
1 User(s) are reading this topic (1 Guests and 0 Anonymous Users)
0 Members:

 



- Lo-Fi Version Support form
Copyrights and abuse reports form
Time is now: 23rd July 2018 - 01:10:24