Welcome Guest ( Log In | Register )

> An Open Letter - An Open Letter [ep] (2015), Atmospheric Post-Black Metal
post Sep 9 2015, 12:40:35
Post #1

Serial Uploader
Group Icon
Group: V.I.P
Posts: 33,290
Releases: 31565
From: Lithuania
On Forums: 10 years 5 months
Thanks: 360604 time(s)
Lithuania


(IMG:https://metalarea.org/images/audiocovers/2015_Sep/acov_tid252465_thumb.jpg)

*Artist: An Open Letter
*Album: An Open Letter [ep]
*Year: 2015
*Genre: Atmospheric Post-Black Metal
*Country: United States (IMG:https://metalarea.org/forum/style_images/flags/United%20States.png)
*Format: mp3@CBR320kbps
*Size: 75MB

Tracklist:
01. Coma 07:32
02. The Answer In Her Eyes 15:20
03. Something Better 01:51
04. Reveal 08:14
******************************
Total playing time: 32:57




Technical info
(IMG:https://metalarea.org/images/spectrogram/2015_Sep/3aa5697e23cf5e267576b3b01a59382f.png)
Input File: 02. The Answer in Her Eyes.mp3
Channels : 2
Sample Rate : 44100
Precision : 16-bit
Duration : 00:15:20.69 = 40602561 samples = 69052 CDDA sectors
File Size : 36.9M
Bit Rate : 321k
Sample Encoding: MPEG audio (layer I, II or III)
Comments :
Title=The Answer in Her Eyes
Artist=An Open Letter
Album=An Open Letter
Tracknumber=2
Year=2015



Register


Go to the top of the page
  Insert nick Quick quote
+Quote Post
 
Start new topic
Replies (1 - 7)
post Sep 9 2015, 18:09:19
Post #2

Два Литра
**
Group: Завсегдатай
Posts: 115
Releases: 0
On Forums: 12 years 7 months
Thanks: 66 time(s)
Unknown



Go to the top of the page
  Insert nick Quick quote
+Quote Post
post Feb 19 2016, 21:25:15
Post #3

Литр
*
Group: Подсевший
Posts: 71
Releases: 0
From: Санкт-Петербург
On Forums: 9 years 9 months
Thanks: 16 time(s)
Russian Federation


Господа, перезалейте плиз, этот ифолдер такое Г
Go to the top of the page
  Insert nick Quick quote
+Quote Post
post Feb 19 2016, 21:44:51
Post #4

Правь статус, ####!111
**************
Group: Металариец
Posts: 6,615
Releases: 0
From: Москва
On Forums: 9 years 3 months
Thanks: 11707 time(s)
Russian Federation


С бандкампа можно скачать совершенно бесплатно
Go to the top of the page
  Insert nick Quick quote
+Quote Post
post Feb 20 2016, 17:25:22
Post #5

Литр
*
Group: Подсевший
Posts: 71
Releases: 0
From: Санкт-Петербург
On Forums: 9 years 9 months
Thanks: 16 time(s)
Russian Federation


ЦИТАТА(varlam4 @ Feb 19 2016, 23:44:51) *
С бандкампа можно скачать совершенно бесплатно

Меня выкидывает на магазины типа этого
А там платить надо.
Вот и прошу здесь перезалить. Группа очень понравилась.
Go to the top of the page
  Insert nick Quick quote
+Quote Post
post Feb 20 2016, 18:04:33
Post #6

Шесть Литров
******
Group: Металариец
Posts: 654
Releases: 42
From: М.О.
On Forums: 11 years 11 months
Thanks: 3291 time(s)
Russian Federation


ЦИТАТА(Misanthrope@ @ Feb 20 2016, 19:25:22) *
Меня выкидывает на магазины типа этого
А там платить надо.
Вот и прошу здесь перезалить. Группа очень понравилась.

http://www.mediafire.com/download/bo65jp7k...Open+Letter.zip


Thanks:
Go to the top of the page
  Insert nick Quick quote
+Quote Post
post Jun 7 2017, 14:40:13
Post #7

Group: Подсевший
Posts: 20
Releases: 0
On Forums: 10 years 8 months
Thanks: 8 time(s)
Argentina


QUOTE(p42es @ Feb 20 2016, 20:04:33) *



Thx nice band. waiting for Lp. (IMG:style_emoticons/default/pray.gif)
Go to the top of the page
  Insert nick Quick quote
+Quote Post
post Nov 8 2018, 20:18:00
Post #8

Ich bin die Trauer menschlich, kommen Sie zu mir und ich werde Ihnen vergelten
**************
Group: Металариец
Posts: 3,771
Releases: 692
From: Koenigsberg
On Forums: 10 years 10 months
Thanks: 9765 time(s)
Russian Federation


Register

Go to the top of the page
  Insert nick Quick quote
+Quote Post

Reply to this topicStart new topic
2 User(s) are reading this topic (2 Guests and 0 Anonymous Users)
0 Members:

 



- Lo-Fi Version Support form
Copyrights and abuse reports form
Time is now: 17th November 2018 - 22:07:03