Welcome Guest ( Log In | Register )

> Nord Frost - Solstitium (2015), Atmospheric Black Metal/Ambient (D7)
Lion
post Sep 12 2015, 17:44:21
Post #1

Guests team






(IMG:https://metalarea.org/images/audiocovers/2015_Sep/acov_tid252725.jpg)

*Artist: Nord Frost
*Album: Solstitium
*Year: 2015
*Genre: Atmospheric Black Metal/Ambient
*Country: Kazakhstan (IMG:https://metalarea.org/forum/style_images/flags/Kazakhstan.png)
*Format: mp3@CBR320kbps
*Size: 169MB

Tracklist:
1. Albente Caelo
2. Lunae Candentia
3. Noctis Magicae
4. Aestate Noctes
5. Imber
6. Suscitatio
7. Tenebris Mysterium
8. Stella Diurna
9. Aestas Nova
******************************
Total playing time: 1:12:25

(IMG:https://metalarea.org/images/youtube.png)

Technical info
(IMG:https://metalarea.org/images/spectrogram/2015_Sep/f0caf7b5902ba0464ee03f9986c18c98.png)
Input File: 1. Albente Caelo.mp3
Channels : 2
Sample Rate : 44100
Precision : 16-bit
Duration : 00:05:00.57 = 13255049 samples = 22542.6 CDDA sectors
File Size : 12.4M
Bit Rate : 330k
Sample Encoding: MPEG audio (layer I, II or III)
Comments :
Title=Albente Caelo
Artist=Nord Frost
Album=Solstitium
Year=2015-04-11T20:57
Genre=26



Register


Вернуться к началу страницы
  Insert nick Quick quote
+Цитировать сообщение
 
Создать новую тему
Replies (1 - 3)
post Sep 15 2015, 08:59:42
Post #2

ME[ta]LLOMAN
**************
Group: Металариец
Posts: 4,817
Releases: 3
From: Hughes'sRegion\Avdeyevka
On Forums: 11 years 10 months
Thanks: 1697 time(s)
Honduras




всё сидел и ждал.. когдо жеж власк начнёццо (IMG:style_emoticons/default/crazy.gif) хоррошо релакснул, но, таки, не дожждалси (IMG:style_emoticons/default/bye.gif)
Вернуться к началу страницы
  Insert nick Quick quote
+Цитировать сообщение
post Jul 27 2016, 10:44:03
Post #3

but I'm white and downy
**********
Group: Металариец
Posts: 1,029
Releases: 348
From: Московская область
On Forums: 12 years 1 week
Thanks: 4247 time(s)
Russian Federation


Выложен бесплатно
Вернуться к началу страницы
  Insert nick Quick quote
+Цитировать сообщение
post Feb 14 2018, 18:04:14
Post #4

Group: Подсевший
Posts: 22
Releases: 0
On Forums: 9 months 3 weeks
Thanks: 0 time(s)
Russian Federation


где скачать можно?
Вернуться к началу страницы
  Insert nick Quick quote
+Цитировать сообщение

ОтветитьСоздать новую тему
1 User(s) are reading this topic (1 Guests and 0 Anonymous Users)
0 Members:

 



- Lo-Fi Version Support form
Copyrights and abuse reports form
Time is now: 20th February 2018 - 14:31:56