Welcome Guest ( Log In | Register )

> 

Здесь релизы с живыми прямыми ссылками на lossless

> Human Cull & Homolka - Human Cull/Homolka [split] (2012), Grindcore/Sludge Metal | Powerviolence (D4)
Lion
post Sep 14 2015, 08:55:00
Post #1

Guests team






(IMG:https://metalarea.org/images/audiocovers/2015_Sep/acov_tid252821_thumb.jpg)

*Artist: Human Cull & Homolka
*Album: Human Cull/Homolka [split]
*Year: 2012
*Genre: Grindcore/Sludge Metal | Powerviolence
*Country: United Kingdom (IMG:https://metalarea.org/forum/style_images/flags/United%20Kingdom.png) | Canada (IMG:https://metalarea.org/forum/style_images/flags/Canada.png)
*Format: mp3@CBR320kbps
*Size: 50MB

Tracklist:
Human Cull:
1. Cities Become Graves
Homolka:
2. Urchins In An Urn
3. Rob Ford Doesn't Care About Gay People
4. Doped Up, Bloated And Rotting On A Toilet (Fuck Your Stupid
Hipster/Rockabilly Boyfriend)
5. Seth Putnam Isn't Dead, I Just Saw Him At The Oak Leaf Steambaths
6. Book Us, Matt Cuthbert
7. Marx Work Warehouse
******************************
Total playing time: 19:41

Technical info
(IMG:https://metalarea.org/images/spectrogram/2015_Sep/c2f2cf2cb6b261430747d65a5ce5f609.png)
Input File: 02 Homolka - Urchins in an Urn.mp3
Channels : 2
Sample Rate : 44100
Precision : 16-bit
Duration : 00:01:26.76 = 3825896 samples = 6506.63 CDDA sectors
File Size : 4.17M
Bit Rate : 384k
Sample Encoding: MPEG audio (layer I, II or III)
Comments :
Title=Homolka - Urchins in an Urn
Artist=Homolka
Album=Human Cull / Homolka
Tracknumber=2
Year=2012



Register


This post has been edited by Абигор: Sep 14 2015, 09:43:35


Thanks:
Go to the top of the page
  Insert nick Quick quote
+Quote Post
 
Start new topic
Replies (1 - 2)
post Oct 17 2020, 21:05:32
Post #2

Мегаманьяк
***********
Group: Металариец
Posts: 1,887
Releases: 190
From: Omsk, Siberia
On Forums: 11 years 7 months
Thanks: 3986 time(s)
Russian Federation




plz re-up!
Go to the top of the page
  Insert nick Quick quote
+Quote Post
post Oct 18 2020, 09:58:47
Post #3

Group Icon
Group: S-moderation team
Posts: 17,371
Releases: 1441
From: Zagreb
On Forums: 9 years 8 months
Thanks: 79059 time(s)
Croatia


Register
Register


Thanks:
(1) Evgundel,
Go to the top of the page
  Insert nick Quick quote
+Quote Post

Reply to this topicStart new topic
2 User(s) are reading this topic (2 Guests and 0 Anonymous Users)
0 Members:

 



- Lo-Fi Version Support form
Copyrights and abuse reports form
Time is now: 30th October 2020 - 08:50:46