Welcome Guest ( Log In | Register )

> Deafest & Sinding - Deafest/Sinding [split] (2015), Black Metal | Atmospheric Post-Black Metal
post Sep 14 2015, 11:28:19
Post #1

Serial Uploader
Group Icon
Group: V.I.P
Posts: 32,433
Releases: 30738
From: Lithuania
On Forums: 9 years 11 months
Thanks: 353095 time(s)
Lithuania


(IMG:https://metalarea.org/images/audiocovers/2015_Sep/acov_tid252835_thumb.jpg)

*Artist: Deafest & Sinding
*Album: Deafest/Sinding [split]
*Year: 2015
*Genre: Black Metal | Atmospheric Post-Black Metal
*Country: United States (IMG:https://metalarea.org/forum/style_images/flags/United%20States.png) | Canada (IMG:https://metalarea.org/forum/style_images/flags/Canada.png)
*Format: mp3@CBR320kbps
*Size: 33MB

Tracklist:
Deafest:
01. Alpenglow 06:59
Sinding:
02. Dust In Cavern Light 07:14
******************************
Total playing time: 14:13





Technical info
(IMG:https://metalarea.org/images/spectrogram/2015_Sep/800ee626588b60cab9f57008f05e3138.png)
Input File: 01. Alpenglow.mp3
Channels : 2
Sample Rate : 44100
Precision : 16-bit
Duration : 00:06:59.91 = 18517811 samples = 31492.9 CDDA sectors
File Size : 17.1M
Bit Rate : 325k
Sample Encoding: MPEG audio (layer I, II or III)
Comments :
Title=Alpenglow
Artist=Deafest & Sinding
Album=Deafest / Sinding Split
Tracknumber=1
Year=2015



Register


Вернуться к началу страницы
  Insert nick Quick quote
+Цитировать сообщение
 
Создать новую тему
Replies (1 - 1)
post Jan 13 2018, 08:40:26
Post #2

Going home. Flying high.
**************
Group: Металариец
Posts: 12,132
Releases: 0
From: The Land of Shadows
On Forums: 11 years 9 months
Thanks: 16594 time(s)
Russian Federation


from web (26 Mb)
Register


Thanks:
Вернуться к началу страницы
  Insert nick Quick quote
+Цитировать сообщение

ОтветитьСоздать новую тему
2 User(s) are reading this topic (2 Guests and 0 Anonymous Users)
0 Members:

 



- Lo-Fi Version Support form
Copyrights and abuse reports form
Time is now: 20th May 2018 - 14:45:25