Welcome Guest ( Log In | Register )

> Primitive Man - Futility [single] (2015), Sludge/Doom Metal
post Sep 17 2015, 08:21:30
Post #1

Время Мары
**************
Group: Металариец
Posts: 3,309
Releases: 499
From: Харьков
On Forums: 13 years 4 weeks
Thanks: 10380 time(s)
Ukraine


(IMG:http://metalarea.org/images/audiocovers/2015_Sep/acov_tid253050_thumb.jpg)

*Artist: Primitive Man
*Album: Futility [single]
*Year: 2015
*Genre: Sludge/Doom Metal
*Country: United States (IMG:http://metalarea.org/forum/style_images/flags/United%20States.png)
*Format: mp3@CBR320kbps
*Size: 18MB

Tracklist:
1. Futility
******************************
Total playing time: 7:00

Technical info
(IMG:http://metalarea.org/images/spectrogram/2015_Sep/db7908ea41fbb5434026e06bebd24587.png)
Input File: 01 Futility.mp3
Channels : 2
Sample Rate : 44100
Precision : 16-bit
Duration : 00:07:00.33 = 18536377 samples = 31524.5 CDDA sectors
File Size : 17.0M
Bit Rate : 323k
Sample Encoding: MPEG audio (layer I, II or III)
Comments :
Title=Futility
Artist=Primitive Man
Album=Futility (single)
Tracknumber=1
Year=2015



Register


Go to the top of the page
  Insert nick Quick quote
+Quote Post
 
Start new topic
Replies (1 - 1)
post Sep 21 2015, 19:54:18
Post #2

Group: Подсевший
Posts: 42
Releases: 4
On Forums: 13 years 4 months
Thanks: 51 time(s)
Russian Federation


Go to the top of the page
  Insert nick Quick quote
+Quote Post

Reply to this topicStart new topic
1 User(s) are reading this topic (1 Guests and 0 Anonymous Users)
0 Members:

 



- Lo-Fi Version Support form
Copyrights and abuse reports form
Time is now: 5th July 2022 - 22:59:35