Welcome Guest ( Log In | Register )

> Psychosomatic - Clicking Sound Of A Hammer Pulled Back (2015), Thrash Metal/Crossover
post Sep 23 2015, 10:52:09
Post #1

Serial Uploader
Group Icon
Group: V.I.P
Posts: 33,289
Releases: 31561
From: Lithuania
On Forums: 10 years 5 months
Thanks: 360549 time(s)
Lithuania


(IMG:https://metalarea.org/images/audiocovers/2015_Sep/acov_tid253439_thumb.jpg)

*Artist: Psychosomatic
*Album: Clicking Sound Of A Hammer Pulled Back
*Year: 2015
*Genre: Thrash Metal/Crossover
*Country: United States (IMG:https://metalarea.org/forum/style_images/flags/United%20States.png)
*Format: mp3@CBR320kbps
*Size: 80MB

Tracklist:
01. Chemical Burn 02:14
02. Murder Of Crows 02:09
03. Immortal Disease 02:11
04. Nineteen Eleven 02:25
05. Summoning 02:40
06. Power Addict 02:25
07. Grand Mal Seizure 02:37
08. Conscripted 02:39
09. Ritual Point 02:33
10. Hemmorage 02:44
11. Incite A Riot 02:37
12. Downcast 04:55
******************************
Total playing time: 32:09

(IMG:https://metalarea.org/images/myspace.png)



(IMG:https://metalarea.org/images/youtube.png)

Technical info
(IMG:https://metalarea.org/images/spectrogram/2015_Sep/7783cc2335fa15cf3d4389677dd2be79.png)
Input File: 02. Murder Of Crows.mp3
Channels : 2
Sample Rate : 44100
Precision : 16-bit
Duration : 00:02:09.22 = 5698426 samples = 9691.2 CDDA sectors
File Size : 5.55M
Bit Rate : 344k
Sample Encoding: MPEG audio (layer I, II or III)
Comments :
Title=Murder Of Crows
Artist=Psychosomatic
Album=Clicking Sound Of A Hammer Pulled Back
Tracknumber=02/12
Year=2015



Register


Go to the top of the page
  Insert nick Quick quote
+Quote Post
 
Start new topic
Replies (1 - 6)
post Sep 25 2015, 11:58:11
Post #2

Правь статус, ####!111
**************
Group: Металариец
Posts: 5,233
Releases: 0
From: Primorye.ru
On Forums: 7 years 7 months
Thanks: 1041 time(s)
Russian Federation


ЦИТАТА
З.Ы. ждем качества.

Дождались, спасибо (IMG:style_emoticons/default/20.gif) (IMG:style_emoticons/default/20.gif)
Go to the top of the page
  Insert nick Quick quote
+Quote Post
post Sep 27 2015, 06:48:43
Post #3

South Of Heaven /адепт ВУДУ
**************
Group: Металариец
Posts: 13,163
Releases: 7
From: Санкт-Петербург
On Forums: 8 years 7 months
Thanks: 4802 time(s)
Russian Federation


Очень даже гуд и прошлые альбомы тоже хорошие.
Go to the top of the page
  Insert nick Quick quote
+Quote Post
post Sep 29 2015, 15:28:20
Post #4

Шесть Литров
******
Group: Металариец
Posts: 590
Releases: 1
From: Наро-Фоминск
On Forums: 8 years 4 months
Thanks: 284 time(s)
Russian Federation


Адово!
Go to the top of the page
  Insert nick Quick quote
+Quote Post
post Oct 5 2015, 16:45:35
Post #5

Литр
*
Group: Подсевший
Posts: 99
Releases: 0
On Forums: 9 years 8 months
Thanks: 60 time(s)
Russian Federation


Killer thrash! \m/


Thanks:
Go to the top of the page
  Insert nick Quick quote
+Quote Post
post Mar 30 2016, 12:12:21
Post #6

Правь статус, ####!111
**************
Group: Металариец
Posts: 3,340
Releases: 9
From: Москва и МО
On Forums: 12 years 4 months
Thanks: 818 time(s)
Russian Federation


Просто ядерный Thrash Metal, безудержный и беспощадный. Последний трэк только подкачал )))
Go to the top of the page
  Insert nick Quick quote
+Quote Post
post Sep 14 2018, 19:14:59
Post #7

Правь статус, ####!111
**************
Group: Металариец
Posts: 2,086
Releases: 0
On Forums: 3 years 6 months
Thanks: 2005 time(s)
Russian Federation


Из сети, 320 (IMG:style_emoticons/default/metaler.gif) (IMG:style_emoticons/default/metaler.gif)
Register
Go to the top of the page
  Insert nick Quick quote
+Quote Post

Reply to this topicStart new topic
1 User(s) are reading this topic (1 Guests and 0 Anonymous Users)
0 Members:

 



- Lo-Fi Version Support form
Copyrights and abuse reports form
Time is now: 17th November 2018 - 01:04:04