Welcome Guest ( Log In | Register )

> И неформату есть предел.

Рэп/хип-хоп/шансон/поп удаляются. Для них есть свои порталы.

> Zeffon & Zygmythkaupt - Zeffon/Zygmythkaupt [split] (2014), Dark Ambient | Black Ambient
Jacktheripper666
post Sep 23 2015, 14:14:31
Post #1

Guests team






(IMG:http://metalarea.org/images/audiocovers/2015_Sep/acov_tid253452_thumb.jpg)

*Artist: Zeffon & Zygmythkaupt
*Album: Zeffon/Zygmythkaupt [split]
*Year: 2014
*Genre: Dark Ambient | Black Ambient
*Country: United States (IMG:http://metalarea.org/forum/style_images/flags/United%20States.png) | United States (IMG:http://metalarea.org/forum/style_images/flags/United%20States.png)
*Format: mp3@CBR320kbps
*Size: 52MB

Tracklist:
Zeffon:
1. The Untended Garden 11:15
Zygmythkaupt:
2. Untitled 11:16
******************************
Total playing time: 22:31



Extended info
Ambient release
17 copies on tape


Technical info
(IMG:http://metalarea.org/images/spectrogram/2015_Sep/6cc76ab62f982e2ee3e589c55519c55a.png)
Input File: 02. Zygmythkaupt - Untitled.mp3
Channels : 2
Sample Rate : 44100
Precision : 16-bit
Duration : 00:11:16.74 = 29844190 samples = 50755.4 CDDA sectors
File Size : 27.3M
Bit Rate : 322k
Sample Encoding: MPEG audio (layer I, II or III)
Comments :
Title=Untitled
Artist=Zygmythkaupt
Album=Zygmythkaupt / Zeffon
Tracknumber=02
Year=2014
Genre=Raw Black Metal



Register


Go to the top of the page
  Insert nick Quick quote
+Quote Post
 
Start new topic
Replies (1 - 2)
post Sep 23 2015, 16:34:17
Post #2

Три Литра
***
Group: Завсегдатай
Posts: 297
Releases: 0
On Forums: 13 years 4 months
Thanks: 99 time(s)
Russian Federation


На нормальный обменник выложите у кого есть. Автору спасибо за наводку на релиз, не более
Go to the top of the page
  Insert nick Quick quote
+Quote Post
post Aug 11 2020, 12:04:48
Post #3

The Angel Of Death
**************
Group: Металариец
Posts: 5,634
Releases: 49
From: Луганск, 13 регион, экс-404
On Forums: 14 years 10 months
Thanks: 1859 time(s)
Papua New Guinea


please re-up 2 tracks split!
at bandcamp is only 1 track
Go to the top of the page
  Insert nick Quick quote
+Quote Post

Reply to this topicStart new topic
1 User(s) are reading this topic (1 Guests and 0 Anonymous Users)
0 Members:

 



- Lo-Fi Version Support form
Copyrights and abuse reports form
Time is now: 19th September 2020 - 00:16:37