Welcome Guest ( Log In | Register )

> Hatevomit - Necrövömit [ep] (2015), Black/Death Metal
post Sep 29 2015, 12:37:40
Post #1

Serial Uploader
Group Icon
Group: V.I.P
Posts: 36,147
Releases: 34331
From: Lithuania
On Forums: 11 years 3 months
Thanks: 398261 time(s)
Lithuania


(IMG:https://metalarea.org/images/audiocovers/2015_Sep/acov_tid253774_thumb.jpg)

*Artist: Hatevomit
*Album: Necrövömit [ep]
*Year: 2015
*Genre: Black/Death Metal
*Country: Turkey (IMG:https://metalarea.org/forum/style_images/flags/Turkey.png)
*Format: mp3@VBR298kbps
*Size: 54MB

Tracklist:
01. Necröpervertör 03:22
02. Howling Rapture Of Mighty Death 04:29
03. Malignance Of Torturer 04:02
04. Total Contamination 05:38
05. Inhuman Lust 04:58
06. I.T.K. (Inject The Khaos) 03:10
******************************
Total playing time: 25:39




(IMG:https://metalarea.org/images/youtube.png)

Extended info
Tracks 1-4 are cbr-320
Tracks 5, 6 are vbr~259

Exclusive for Metalarea.org from Hatevomit

(IMG:http://metalarea.org/images/spectrogram/2015_Sep/920c199f918eafc5961942a76fe45150.png)
Input File: 03. Malignance of Torturer.mp3
Channels : 2
Sample Rate : 44100
Precision : 16-bit
Duration : 00:04:02.39 = 10689399 samples = 18179.2 CDDA sectors
File Size : 9.69M
Bit Rate : 320k
Sample Encoding: MPEG audio (layer I, II or III)
Comments :
Title=Malignance Of Torturer
Artist=Hatevomit
Album=Necrövömit
Tracknumber=3
Year=2015
Genre=Black/Death Metal


Register


Go to the top of the page
  Insert nick Quick quote
+Quote Post
 
Start new topic
Replies (1 - 2)
post Jul 21 2017, 05:04:24
Post #2

aggresive exumator!
*********
Group: Металариец
Posts: 934
Releases: 0
On Forums: 7 years 11 months
Thanks: 35 time(s)
Unknown


reupload please


Thanks:
Go to the top of the page
  Insert nick Quick quote
+Quote Post
post Jun 19 2019, 02:43:39
Post #3

Правь статус, ####!111
**************
Group: Металариец
Posts: 6,543
Releases: 164
From: URUGUAY
On Forums: 12 years 11 months
Thanks: 16824 time(s)
Uruguay


New link
Register
Go to the top of the page
  Insert nick Quick quote
+Quote Post

Reply to this topicStart new topic
2 User(s) are reading this topic (2 Guests and 0 Anonymous Users)
0 Members:

 



- Lo-Fi Version Support form
Copyrights and abuse reports form
Time is now: 20th September 2019 - 16:59:17