Welcome Guest ( Log In | Register )

> Witchskull - The Vast Electric Dark (2015), Stoner Metal
post Oct 5 2015, 18:30:01
Post #1

Thrash, Beer & Violence
**************
Group: Металариец
Posts: 5,503
Releases: 2772
From: Крестов Брод (Russland)
On Forums: 10 years 11 months
Thanks: 39679 time(s)
Russian Federation


(IMG:http://metalarea.org/images/audiocovers/2015_Oct/acov_tid254105_thumb.jpg)

*Artist: Witchskull
*Album: The Vast Electric Dark
*Year: 2015
*Genre: Stoner Metal
*Country: Australia (IMG:http://metalarea.org/forum/style_images/flags/Australia.png)
*Format: mp3@CBR320kbps
*Size: 85MB

Tracklist:
1. The Vast Electric Dark 03:00
2. Temple of Ly's 04:23
3. Pan's Daughter 05:07
4. Swim the Abyss 03:20
5. Raise the Dead 05:20
6. World's Away 05:37
7. Harvest of the Druid 06:18
8. Cassandra's Curse 03:29
******************************
Total playing time: 36:34




Extended info
В Лоу...


Technical info
(IMG:http://metalarea.org/images/spectrogram/2015_Oct/03f07d3c0b1f5251a72a39f2cf6cb5da.png)
Input File: 01 The Vast Electric Dark.mp3
Channels : 2
Sample Rate : 44100
Precision : 16-bit
Duration : 00:03:00.76 = 7971560 samples = 13557.1 CDDA sectors
File Size : 7.33M
Bit Rate : 324k
Sample Encoding: MPEG audio (layer I, II or III)
Comments :
Title=The Vast Electric Dark
Artist=Witchskull
Album=The Vast Electric Dark
Tracknumber=1
Year=2015



Register


Thanks:
Go to the top of the page
  Insert nick Quick quote
+Quote Post
 
Start new topic
Replies (1 - 6)
post Jun 2 2018, 13:49:15
Post #2

hearer & reader
**************
Group: Металариец
Posts: 6,850
Releases: 86
From: Moscow
On Forums: 11 years 1 week
Thanks: 6614 time(s)
Russian Federation



Этот стиль принципиально не смотрю. Жду, пока сам свалится.
Вот, свалился.

Нема хорошего рипа?
Go to the top of the page
  Insert nick Quick quote
+Quote Post
post Jun 2 2018, 13:58:01
Post #3

South Of Heaven /адепт ВУДУ
**************
Group: Металариец
Posts: 12,860
Releases: 7
From: Санкт-Петербург
On Forums: 8 years 5 months
Thanks: 4700 time(s)
Russian Federation


У DesperadoJocker (IMG:style_emoticons/default/9.gif) нашёл:

Register


Но транскод или нет не проверял.


Thanks:
(1) AHBAnep,
Go to the top of the page
  Insert nick Quick quote
+Quote Post
post Jun 4 2018, 08:38:06
Post #4

hearer & reader
**************
Group: Металариец
Posts: 6,850
Releases: 86
From: Moscow
On Forums: 11 years 1 week
Thanks: 6614 time(s)
Russian Federation


ЦИТАТА(avkruchinin @ Jun 2 2018, 15:58:01) *
Но транскод или нет не проверял.

Срез частот на 16КГц, но по тегам похоже на скаченное с BC.
Go to the top of the page
  Insert nick Quick quote
+Quote Post
post Jun 13 2018, 13:13:27
Post #5

South Of Heaven /адепт ВУДУ
**************
Group: Металариец
Posts: 12,860
Releases: 7
From: Санкт-Петербург
On Forums: 8 years 5 months
Thanks: 4700 time(s)
Russian Federation


А альбом-то хорош, однако!
Go to the top of the page
  Insert nick Quick quote
+Quote Post
post Jun 13 2018, 14:01:50
Post #6
BAN
Banned till
Oct 23 2018, 12:27:08



ЦИТАТА(avkruchinin @ Jun 13 2018, 16:13:27) *
А альбом-то хорош, однако!


Экой ты, себя не жалеешь, мучаешь себя транскодами, но признаться надо что альбом действительно зело уматен. (IMG:style_emoticons/default/9.gif)
Go to the top of the page
  Insert nick Quick quote
+Quote Post
post Jun 13 2018, 14:11:59
Post #7

South Of Heaven /адепт ВУДУ
**************
Group: Металариец
Posts: 12,860
Releases: 7
From: Санкт-Петербург
On Forums: 8 years 5 months
Thanks: 4700 time(s)
Russian Federation


ЦИТАТА(vosmidesijatye @ Jun 13 2018, 16:01:50) *
мучаешь себя транскодами

А у тебя есть лучше?
Go to the top of the page
  Insert nick Quick quote
+Quote Post

Reply to this topicStart new topic
2 User(s) are reading this topic (2 Guests and 0 Anonymous Users)
0 Members:

 



- Lo-Fi Version Support form
Copyrights and abuse reports form
Time is now: 20th September 2018 - 02:11:22