Welcome Guest ( Log In | Register )

> Atra Mors - Invoking Lucifer [demo] (2015), Black Metal
Jacktheripper666
post Oct 6 2015, 07:53:09
Post #1

Guests team






(IMG:http://metalarea.org/images/audiocovers/2015_Oct/acov_tid254126_thumb.jpg)

*Artist: Atra Mors
*Album: Invoking Lucifer [demo]
*Year: 2015
*Genre: Black Metal
*Country: United Kingdom (IMG:http://metalarea.org/forum/style_images/flags/United%20Kingdom.png)
*Format: mp3@CBR320kbps
*Size: 39MB

Tracklist:
1. Blackest Apostasy 02:51
2. Invoking Lucifer 03:10
3. Lunar Madness 02:56
4. Witches Coven 03:23
5. Wing of Obsidian 04:22
******************************
Total playing time: 16:42



Extended info
Rehearsal 05/09/2015


Technical info
(IMG:http://metalarea.org/images/spectrogram/2015_Oct/9d8febcc327d5532b4f91a987b3b730e.png)
Input File: 02. Invoking Lucifer.mp3
Channels : 2
Sample Rate : 44100
Precision : 16-bit
Duration : 00:03:10.19 = 8387335 samples = 14264.2 CDDA sectors
File Size : 7.67M
Bit Rate : 323k
Sample Encoding: MPEG audio (layer I, II or III)
Comments :
Title=Invoking Lucifer
Artist=Atra Mors
Album=Invoking Lucifer
Tracknumber=2
Year=2015
Genre=Black Metal



Register


Go to the top of the page
  Insert nick Quick quote
+Quote Post
 
Start new topic
Replies (1 - 2)
post Jun 30 2020, 04:07:15
Post #2

Пять Литров
*****
Group: Металариец
Posts: 495
Releases: 0
From: Johannesburg, South Africa
On Forums: 10 years 11 months
Thanks: 108 time(s)
South Africa


Re-up anyone?

(IMG:style_emoticons/default/pray.gif)
Go to the top of the page
  Insert nick Quick quote
+Quote Post
post Jun 30 2020, 07:04:13
Post #3

Правь статус, ####!111
**************
Group: Металариец
Posts: 8,343
Releases: 0
From: Москва
On Forums: 10 years 11 months
Thanks: 14828 time(s)
Russian Federation


Register
320


Thanks:
Go to the top of the page
  Insert nick Quick quote
+Quote Post

Reply to this topicStart new topic
2 User(s) are reading this topic (2 Guests and 0 Anonymous Users)
0 Members:

 



- Lo-Fi Version Support form
Copyrights and abuse reports form
Time is now: 9th July 2020 - 09:34:32