Welcome Guest ( Log In | Register )

> Zuriaake - 孤雁 Gu Yan (2015), Atmospheric Black Metal
post Oct 12 2015, 00:43:28
Post #1

Serial Uploader
Group Icon
Group: V.I.P
Posts: 36,613
Releases: 34797
From: Lithuania
On Forums: 11 years 6 months
Thanks: 407595 time(s)
Lithuania


(IMG:http://metalarea.org/images/audiocovers/2015_Oct/acov_tid254492_thumb.jpg)

*Artist: Zuriaake
*Album: 孤雁 Gu Yan
*Year: 2015
*Genre: Atmospheric Black Metal
*Country: China (IMG:http://metalarea.org/forum/style_images/flags/China.png)
*Format: mp3@CBR320kbps
*Size: 188MB

Tracklist:
01. 暮云 04:24
02. 孤雁 (Album version) 12:18
03. 天庭 (Album version) 07:19
04. 梦邀 ( 广寒 / 仙游 / 南柯 ) 20:56
05. 邊關 06:45
06. 歸去 07:52
07. 終曲 02:02
08. 孤雁 (EP version) 12:14
09. 天庭 (EP version) 07:15
******************************
Total playing time: 1:21:05



Technical info
(IMG:http://metalarea.org/images/spectrogram/2015_Oct/9405836384fdf3fad33ac612a546d3eb.png)
Input File: 06. ??.mp3
Channels : 2
Sample Rate : 44100
Precision : 16-bit
Duration : 00:07:52.11 = 20819875 samples = 35408 CDDA sectors
File Size : 19.1M
Bit Rate : 324k
Sample Encoding: MPEG audio (layer I, II or III)
Comments :
Title=ж­ёеЋ»
Artist=ZURIAAKE
Album=е­¤й›Ѓ Gu Yan
Tracknumber=6
Year=2015



Register


This post has been edited by DarkHorde: Oct 12 2015, 14:52:08


Go to the top of the page
  Insert nick Quick quote
+Quote Post
 
Start new topic
Replies (1 - 3)
post Dec 10 2015, 18:40:01
Post #2

I will kill you
**************
Group: Металариец
Posts: 3,027
Releases: 0
From: Moscow
On Forums: 13 years 5 months
Thanks: 6954 time(s)
Russian Federation


spiegel in 320
Register


Go to the top of the page
  Insert nick Quick quote
+Quote Post
post Dec 31 2015, 18:23:23
Post #3


**************
Group: Металариец
Posts: 2,144
Releases: 14
From: Казань
On Forums: 10 years 2 months
Thanks: 2835 time(s)
Russian Federation


В атмосферный ТОП года! Душа праздника просит
Go to the top of the page
  Insert nick Quick quote
+Quote Post
post Mar 22 2016, 13:15:57
Post #4

\m/
Group Icon
Group: S-moderation team
Posts: 7,709
Releases: 19
From: Петропавловск-Камчатский
On Forums: 10 years 6 months
Thanks: 7310 time(s)
Russian Federation


Душевный атмосферик с амбиентыми вставками, выполненные/наполненные традиционными китайскими мотивами. Музыка для раслабона и душевного равновесия, всё по фэн-шую! (IMG:style_emoticons/default/20.gif)
Go to the top of the page
  Insert nick Quick quote
+Quote Post

Reply to this topicStart new topic
2 User(s) are reading this topic (2 Guests and 0 Anonymous Users)
0 Members:

 



- Lo-Fi Version Support form
Copyrights and abuse reports form
Time is now: 13th December 2019 - 17:34:01