Welcome Guest ( Log In | Register )

> Abisma - Memórias (2015), Atmospheric/Depressive Black Metal
post Oct 12 2015, 05:46:52
Post #1

Аннигилятор пивА
Group Icon
Group: V.I.P
Posts: 52,360
Releases: 16550
From: Koenigsberg - TILZIT
On Forums: 14 years 9 months
Thanks: 367146 time(s)
Russian Federation


(IMG:https://metalarea.org/images/audiocovers/2015_Oct/acov_tid254494_thumb.jpg)

*Artist: Abisma
*Album: Memórias
*Year: 2015
*Genre: Atmospheric/Depressive Black Metal
*Country: Brazil (IMG:https://metalarea.org/forum/style_images/flags/Brazil.png)
*Format: mp3@CBR320kbps
*Size: 151MB

Tracklist:
1. Um Capítulo Sem Fim da Minha Vida 09:59
2. O Anjo Corrompido 08:43
3. O Lacrimejar do Tempo 08:55
4. Suicídio da Mente 09:38
5. A Doença Degenerativa de Lúcio (1897-1997) 08:54
6. Memórias 09:46
7. Meu Fim (...hipotermia) 06:30
******************************
Total playing time: 1:02:25




Extended info
Seektor - Vocals
Black Frost - All Instruments
P. - All instruments



Technical info
(IMG:https://metalarea.org/images/spectrogram/2015_Oct/8f5d7651cc3eba0f8996e0dacade9e55.png)
Input File: Abisma - Memórias - 02 O Anjo Corrompido.mp3
Channels : 2
Sample Rate : 44100
Precision : 16-bit
Duration : 00:08:44.04 = 23110252 samples = 39303.1 CDDA sectors
File Size : 21.1M
Bit Rate : 322k
Sample Encoding: MPEG audio (layer I, II or III)
Comments :
Title=O Anjo Corrompido
Artist=Abisma
Album=MemГіrias
Tracknumber=2
Year=2015



Register


Go to the top of the page
  Insert nick Quick quote
+Quote Post
 
Start new topic
Replies (1 - 3)
post Dec 10 2015, 18:37:50
Post #2

I will kill you
**************
Group: Металариец
Posts: 3,028
Releases: 0
From: Moscow
On Forums: 14 years 8 months
Thanks: 7060 time(s)
Russian Federation


spiegel in 192
Register
Go to the top of the page
  Insert nick Quick quote
+Quote Post
post Sep 17 2017, 13:09:41
Post #3

Правь статус, ####!111
**************
Group: Металариец
Posts: 9,181
Releases: 0
From: Москва
On Forums: 11 years 6 months
Thanks: 16423 time(s)
Russian Federation


Register
320


Go to the top of the page
  Insert nick Quick quote
+Quote Post
post Feb 23 2021, 06:14:32
Post #4

antithesis
**************
Group: Металариец
Posts: 3,285
Releases: 34
From: VRN
On Forums: 10 years 9 months
Thanks: 2093 time(s)
Russian Federation


типичная пластмассовая бразильская депра
Go to the top of the page
  Insert nick Quick quote
+Quote Post

Reply to this topicStart new topic
2 User(s) are reading this topic (2 Guests and 0 Anonymous Users)
0 Members:

 



- Lo-Fi Version Support form
Copyrights and abuse reports form
Time is now: 26th February 2021 - 23:33:24