Welcome Guest ( Log In | Register )

> The Paralydium Project - The Paralydium Project [ep] (2015), Progressive Metal
post Oct 12 2015, 10:09:22
Post #1

21st Century Schizoid Man
**************
Group: Металариец
Posts: 6,772
Releases: 82
From: Moscow
On Forums: 12 years 11 months
Thanks: 5695 time(s)
Russian Federation


(IMG:http://metalarea.org/images/audiocovers/2015_Oct/acov_tid254508_thumb.jpg)

*Artist: The Paralydium Project
*Album: The Paralydium Project [ep]
*Year: 2015
*Genre: Progressive Metal
*Country: Sweden (IMG:http://metalarea.org/forum/style_images/flags/Sweden.png)
*Format: mp3@CBR320kbps
*Size: 55MB

Tracklist:
01. New Frontier 8:19
02. Bringer of Life 6:40
03. Astral Liberation 8:40
******************************
Total playing time: 23:39

(IMG:http://metalarea.org/images/youtube.png)
Preview 2

Extended info
Line-up

John Berg - Guitars, Additional Keys, Programming
Georg Härnsten Egg - Drums
Jonathan Olsson - Bass
Micke Jansson - Keys
Mikael Sehlin - Vocals/Backing Vocals
Linnéa Vikström - Vocals/Backing Vocals


Technical info
(IMG:http://metalarea.org/images/spectrogram/2015_Oct/89263cee1f66dcd3ce15831883a36dd7.png)
Input File: 02. Bringer of Life.mp3
Channels : 2
Sample Rate : 44100
Precision : 16-bit
Duration : 00:06:40.68 = 17669988 samples = 30051 CDDA sectors
File Size : 16.2M
Bit Rate : 323k
Sample Encoding: MPEG audio (layer I, II or III)
Comments :
Title=Bringer of Life
Artist=The Paralydium Project
Album=The Paralydium Project
Tracknumber=02
Year=2015
Genre=Progressive Rock



Register


Go to the top of the page
  Insert nick Quick quote
+Quote Post
 
Start new topic
Replies (1 - 3)
post Oct 12 2015, 12:38:05
Post #2

21st Century Schizoid Man
**************
Group: Металариец
Posts: 6,772
Releases: 82
From: Moscow
On Forums: 12 years 11 months
Thanks: 5695 time(s)
Russian Federation


Господа любители прога, не проходим мимо. (IMG:style_emoticons/default/smile4.gif)


Thanks:
(1) u1106,
Go to the top of the page
  Insert nick Quick quote
+Quote Post
post Oct 12 2015, 15:53:54
Post #3

на аватаре не я
**************
Group: Металариец
Posts: 5,216
Releases: 8
From: "Самопровозглашенная ДНР" (с)
On Forums: 11 years 9 months
Thanks: 2724 time(s)
Russian Federation


Действительно достойный дебют. Группа явно вдохновляется Театром и Гелереей, но пока что уступает своим вдохновителям в умении писать хитовые песни. Возможно, на слеующем альбоме этот недостаток будет исправлен.
Go to the top of the page
  Insert nick Quick quote
+Quote Post
post Oct 13 2015, 23:23:16
Post #4

Правь статус, ####!111
**************
Group: Металариец
Posts: 2,462
Releases: 12
From: Canada
On Forums: 13 years 10 months
Thanks: 1683 time(s)
Canada


Not amazed by the vocals, but musically (& lyrically), they sound almost identical to PAGAN'S MIND at times.


Thanks:
(1) Yarri,
Go to the top of the page
  Insert nick Quick quote
+Quote Post

Reply to this topicStart new topic
1 User(s) are reading this topic (1 Guests and 0 Anonymous Users)
0 Members:

 



- Lo-Fi Version Support form
Copyrights and abuse reports form
Time is now: 18th April 2021 - 12:25:20