Welcome Guest ( Log In | Register )

> Crescent Days - Pathway To Inexistence (2015), Atmospheric Black Metal
post Oct 20 2015, 13:11:10
Post #1

Serial Uploader
Group Icon
Group: V.I.P
Posts: 33,289
Releases: 31565
From: Lithuania
On Forums: 10 years 5 months
Thanks: 360579 time(s)
Lithuania


(IMG:http://metalarea.org/images/audiocovers/2015_Oct/acov_tid254974_thumb.jpg)

*Artist: Crescent Days
*Album: Pathway To Inexistence
*Year: 2015
*Genre: Atmospheric Black Metal
*Country: Germany (IMG:http://metalarea.org/forum/style_images/flags/Germany.png)
*Format: mp3@CBR320kbps
*Size: 127MB

Tracklist:
01. No More Existence 06:49
02. I Am Amongst The Clouds 08:44
03. She Moved Away... 03:40
04. Blissful Daydream 07:22
05. Moon Collector 10:14
06. Ivory 08:09
07. DreamsOf Lucidity 10:11
******************************
Total playing time: 55:09



(IMG:http://metalarea.org/images/youtube.png)

Technical info
(IMG:http://metalarea.org/images/spectrogram/2015_Oct/eade4ce44213ffc707cfae9eab34d45c.png)
Input File: 05. Moon Collector.mp3
Channels : 2
Sample Rate : 44100
Precision : 16-bit
Duration : 00:10:14.07 = 27080267 samples = 46054.9 CDDA sectors
File Size : 24.7M
Bit Rate : 322k
Sample Encoding: MPEG audio (layer I, II or III)
Comments :
Title=Moon Collector
Artist=Crescent Days
Album=Pathway To Inexistence
Tracknumber=5
Year=2015



Register


Go to the top of the page
  Insert nick Quick quote
+Quote Post
 
Start new topic
Replies (1 - 4)
post Oct 20 2015, 13:58:58
Post #2

Два Литра
**
Group: Завсегдатай
Posts: 121
Releases: 0
On Forums: 3 years 6 months
Thanks: 57 time(s)
Ukraine



Crescent Days - Hamburg, Germany


Go to the top of the page
  Insert nick Quick quote
+Quote Post
post Oct 29 2015, 19:25:24
Post #3

Black is beautiful
***********
Group: Металариец
Posts: 1,643
Releases: 4
On Forums: 6 years 8 months
Thanks: 305 time(s)
Unknown


Avant-Garde Black Metal

And: Not good
Go to the top of the page
  Insert nick Quick quote
+Quote Post
post Oct 31 2015, 16:45:44
Post #4

ME[ta]LLOMAN
**************
Group: Металариец
Posts: 4,873
Releases: 3
From: Hughes'sRegion\Avdeyevka
On Forums: 12 years 7 months
Thanks: 1772 time(s)
Honduras


not Bad (IMG:style_emoticons/default/9.gif)
Go to the top of the page
  Insert nick Quick quote
+Quote Post
post Nov 8 2018, 19:14:12
Post #5

Ich bin die Trauer menschlich, kommen Sie zu mir und ich werde Ihnen vergelten
**************
Group: Металариец
Posts: 3,769
Releases: 692
From: Koenigsberg
On Forums: 10 years 10 months
Thanks: 9762 time(s)
Russian Federation


Register



Thanks:
(1) kim666,
Go to the top of the page
  Insert nick Quick quote
+Quote Post

Reply to this topicStart new topic
2 User(s) are reading this topic (2 Guests and 0 Anonymous Users)
0 Members:

 



- Lo-Fi Version Support form
Copyrights and abuse reports form
Time is now: 17th November 2018 - 10:33:14